img image001 image001 image001 image001 image001 image001 image001 image001 image001 image001 image001 image001 image001 image001 image001

Planets Sun Sun Sun
Статистика раздачи
Автор: Снежана | Размер: 5.33 ГБ | Добавлен: 27 июл 2013
Раздают: 0    Качают: 3
Скачать торрент
Скачать торрент
Описание торрента

СообщениеДобавлено: 27 июл 2013 

Топ Кэт в 3Д / Don gato y su pandilla 3D
«Держи хвост пистолетом!»


#77

Страна: Мексика, Аргентина, Великобритания
Студия: Anima Estudios, Illusion Studios
Жанр: мультфильм, боевик, комедия, семейный
Год выпуска: 2011
Продолжительность: 01:30:19

Перевод: Профессиональный (дублированный) [Лицензия]
Русские субтитры: нет
Режиссёр: Альберто Мар / Alberto Mar

Описание:
Супер Кот и его озорная шайка бродячих котов сталкиваются с новым шефом полиции и своим старым заклятым врагом — офицером Дибблом. Полиция полна решимости помешать проделкам Кота и надеется выдворить его из любимого переулка. Но как бы они не старались, команде Супер Кота всегда удается обвести блюстителей закона вокруг пальца.

Тип релиза: BDRip 1080p
Контейнер: MKV
Видео кодек: x264
Аудио кодек: AC3
Формат 3D: Half OverUnder / Вертикальная анаморфная стереопара
Порядок ракурсов: левый ракурс первый
Видео: AVC / High@L4.1 / 2 pass / 23,976 fps / 1920x1080p / / 7,8 Mbps / 0.157
Аудио: AC3 / 5.1 ch / 640 kbps / Русский дубляж BD RUS
Субтитры: нет
Дополнительно: Сохранены оригинальные чаптеры как на Blu-ray
Рип от: Killbrain


Раздача от:











x264 [info]: frame I:1016 Avg QP:12.10 size:306929
x264 [info]: frame P:30083 Avg QP:14.48 size:110407
x264 [info]: frame B:76886 Avg QP:16.17 size: 40628

Общее
Уникальный идентификатор : 223703820578964572945211876762276698145 (0xA84BC9E674008376AFF34A26594D9821)
Полное имя : F:Скачка торрентDon.gato.y.su.pandilla.3D.2011.BDRip1080p.halfOU(Killbrain).mkv
Формат : Matroska
Версия формата : Version 4 / Version 2
Размер файла : 5,33 Гбайт
Продолжительность : 1 ч. 30 м.
Общий поток : 8443 Кбит/сек
Название фильма : Don gato y su pandilla 3D (2011) by Killbrain
Дата кодирования : UTC 2010-02-22 21:41:31
Программа кодирования : mkvmerge v5.9.0 ('On The Loose') built on Dec 9 2012 15:37:01
Библиотека кодирования : libebml v1.3.0 + libmatroska v1.4.0

Видео
Идентификатор : 1
Формат : AVC
Формат/Информация : Advanced Video Codec
Профиль формата : High@L4.1
Параметр CABAC формата : Да
Параметр ReFrames формата : 4 кадра
Идентификатор кодека : V_MPEG4/ISO/AVC
Продолжительность : 1 ч. 30 м.
Битрейт : 7800 Кбит/сек
Ширина : 1920 пикселей
Высота : 1080 пикселей
Соотношение сторон : 16:9
Режим частоты кадров : Постоянный
Частота кадров : 23,976 кадра/сек
Цветовое пространство : YUV
Субдискретизация насыщенности : 4:2:0
Битовая глубина : 8 бит
Тип развёртки : Прогрессивная
Бит/(Пиксели*Кадры) : 0.157
Размер потока : 4,82 Гбайт (90%)
Заголовок : Don gato y su pandilla 3D (2011)
Библиотека кодирования : x264 core 128 r2216 198a7ea
Настройки программы : cabac=1 / ref=4 / deblock=1:-2:-2 / analyse=0x3:0x113 / me=umh / subme=9 / psy=1 / psy_rd=1.00:0.40 / mixed_ref=1 / me_range=16 / chroma_me=1 / trellis=2 / 8x8dct=1 / cqm=0 / deadzone=21,11 / fast_pskip=1 / chroma_qp_offset=-4 / threads=3 / lookahead_threads=1 / sliced_threads=0 / nr=0 / decimate=0 / interlaced=0 / bluray_compat=0 / constrained_intra=0 / bframes=6 / b_pyramid=2 / b_adapt=2 / b_bias=0 / direct=3 / weightb=1 / open_gop=0 / weightp=2 / keyint=240 / keyint_min=23 / scenecut=40 / intra_refresh=0 / rc_lookahead=60 / rc=2pass / mbtree=0 / bitrate=7800 / ratetol=1.0 / qcomp=0.65 / qpmin=0 / qpmax=69 / qpstep=4 / cplxblur=20.0 / qblur=0.5 / vbv_maxrate=40000 / vbv_bufsize=40000 / nal_hrd=none / frame-packing=4 / ip_ratio=1.40 / pb_ratio=1.30 / aq=1:0.70
Язык : English
Default : Да
Forced : Нет

Аудио
Идентификатор : 2
Формат : AC-3
Формат/Информация : Audio Coding 3
Расширение режима : CM (complete main)
Параметр Endianness формата : Big
Идентификатор кодека : A_AC3
Продолжительность : 1 ч. 30 м.
Вид битрейта : Постоянный
Битрейт : 640 Кбит/сек
Каналы : 6 каналов
Расположение каналов : Front: L C R, Side: L R, LFE
Частота : 48,0 КГц
Битовая глубина : 16 бит
Метод сжатия : С потерями
Размер потока : 413 Мбайт (8%)
Заголовок : AC3 / 5.1 ch / 640 kbps / Русский дубляж BD RUS
Язык : Russian
Default : Да
Forced : Нет

Меню
00:00:00.000 : :Chapter 01
00:05:14.856 : :Chapter 02
00:09:39.203 : :Chapter 03
00:16:31.740 : :Chapter 04
00:20:11.168 : :Chapter 05
00:27:02.078 : :Chapter 06
00:32:34.077 : :Chapter 07
00:38:38.524 : :Chapter 08
00:44:07.061 : :Chapter 09
00:49:09.863 : :Chapter 10
00:54:40.360 : :Chapter 11
00:59:47.208 : :Chapter 12
01:06:54.510 : :Chapter 13
01:11:43.048 : :Chapter 14
01:14:53.655 : :Chapter 15
01:21:41.021 : :Chapter 16





   Похожие торренты   Торрент   Размер 
В этой теме нет новых непрочитанных сообщений. Топ Кэт / Don gato y su pandilla (2011) HDRip от Youtracker | Лицензия

3 | 1

1.45 ГБ

В этой теме нет новых непрочитанных сообщений. Топ Кэт / Don gato y su pandilla (2011) BDRip 720p | Лицензия

1 | 1

4.03 ГБ

В этой теме нет новых непрочитанных сообщений. Топ Кэт / Don Gato y su pandilla (2011) HDRip

0 | 5

1.41 ГБ

В этой теме нет новых непрочитанных сообщений. Топ Кэт / Don Gato y su pandilla (2011) DVDRip

0 | 4

699 МБ

В этой теме нет новых непрочитанных сообщений. Топ Кэт / Don Gato y su pandilla (2011) DVDRip

0 | 2

1.47 ГБ

В этой теме нет новых непрочитанных сообщений. Топ Кэт / Don gato y su pandilla (2011) HDRip | Лицензия

27 | 1

700.97 МБ

В этой теме нет новых непрочитанных сообщений. Топ Кэт / Don Gato y su pandilla (2011) HDRip | Лицензия

9 | 2

1.37 ГБ




Вы не можете начинать темы
Вы не можете отвечать на сообщения
Вы не можете редактировать свои сообщения
Вы не можете удалять свои сообщения
Вы не можете добавлять вложения

Перейти:  
Для Мосгорсуда, Роскомнадзора и рекламодателей: mosgorsud-torrent[собачка]yandex.ru
 Вход
ppkBB3cker v.2 © 2008-2014 @ PPK
[ Time : 0.582s | 16 Queries | GZIP : Off ]

Торрент трекер RUTOR.IN, Не можете зайти на rutor.org? Какой новый адрес рутор? Какое зеркало рутор? Не работает rutor.org и зеркала? Тогда наш торрент специально для вас. Rutor.in неофициальное зеркало rutor. В случае если у Вас заблокирован rutor или вдруг Вы не можете на него зайти, то Вы без труда сможете скачать бесплатно и без рекламы последние новинки кино, игр, сериалов и прочего у нас, на Rutor.in. Не нужно использовать прокси, чтобы зайти на рутор, достаточно воспользоваться нашим ресурсом. Все новые фильмы, игры, сериалы, книги и музыка за 2013 и 2014 годы через торрент бесплатно. Скачивайте фильмы в хорошем качестве, игры для пк, xbox, playstation без регистрации. У нас вы найдете новые Зарубежные сериалы и Русские сериалы 2013, 2014, 2015 годов. Оставайтесь с нами, качайте любимые фильмы, игры, сериалы, книги и музыку.