img image001 image001 image001 image001 image001 image001 image001 image001 image001 image001 image001 image001 image001 image001 image001

Planets Sun Sun Sun
Статистика раздачи
Автор: Снежана | Размер: 2.02 ГБ | Добавлен: 27 июл 2013
Раздают: 45    Качают: 2
Скачать торрент
Скачать торрент
Описание торрента

СообщениеДобавлено: 27 июл 2013 

#77

Русское название: Мадагаскар 3
Оригинальное название: Madagascar 3: Europe's Most Wanted
Страна: США
Год выпуска: 2012
Жанр: мультфильм, комедия, приключения
Продолжительность: 01:33:24
Перевод: Дублированный
Субтитры: русские, украинские, английские

Режиссер: Эрик Дарнелл, Том МакГрат, Конрад Вернон

Актеры: Бен Стиллер, Крис Рок, Дэвид Швиммер, Джада Пинкетт Смит, Саша Барон Коэн, Седрик «Развлекатель», Энди Рихтер, Фрэнсис МакДорманд, Брайан Крэнстон, Мартин Шорт

Описание фильма:
Лев Алекс, зебра Марти, гиппопотамиха Глория и жираф Мелман, а также король Джулиан, Морис, Морт и Пингвины все еще пытаются вернуться в Нью-Йорк. На этот раз их путь пройдет через Европу, где они откроют свой цирк.
Файл
Кодек: H.264/AVC
Формат: MP4 (контейнер m4v)
Качество видео: BDRip / 576p
Видео: 1024x576 (16:9) at 23.976 fps, AVC at 2587 kbps avg, 0.183 bit/pixel
Звук: Русский: 48 kHz, AAC, 2ch, 165 kbps | Дублированный
Звук: Украинский: 48 kHz, AAC, 2ch, 165 kbps | Дублированный
Звук: Английский: 48 kHz, AAC, 2ch, 165 Kbps | Оригинал

Автор рипа: leonardo 59

Релиз подготовлен специально для просмотра на Apple TV и iPad.
Пользователям Windows рекомендуется просматривать в VLC.




Complete name : C:ipadMadagascar 3.2012.1024x.iPad.Rus.Eng.leonardo 59.m4v
Format : MPEG-4
Format profile : Base Media / Version 2
Codec ID : mp42
File size : 2.02 GiB
Duration : 1h 33mn
Overall bit rate mode : Variable
Overall bit rate : 3 093 Kbps
Movie name : Мадагаскар 3
Performer : Эрик Дарнелл, Том МакГрат, Конрад Вернон
Genre : Comedy
Recorded date : UTC 2012-06-08 07:00:00
Encoded date : UTC 2012-10-09 10:30:53
Tagged date : UTC 2012-10-13 06:15:58
Cover : Yes
desc : Лев Алекс, зебра Марти, гиппопотамиха Глория и жираф Мелман, а также король Джулиан, Морис, Морт и Пингвины все еще пытаются вернуться в Нью-Йорк. На этот раз их путь пройдет через Европу, где они откроют свой цирк.
ldes : Лев Алекс, зебра Марти, гиппопотамиха Глория и жираф Мелман, а также король Джулиан, Морис, Морт и Пингвины все еще пытаются вернуться в Нью-Йорк. На этот раз их путь пройдет через Европу, где они откроют свой цирк.
stik : 9
rtng : 0
cnID : 550561282
xid : Apple:vendor_id:2012-422792
iTunEXTC : mpaa|PG|200|
iTunMOVI : / / / / cast / / / name / Бен Стиллер / / / name / Саша Барон Коэн / / / name / Дэвид Швиммер / / / name / Фрэнсис МакДорманд / / / name / Крис Рок / / / name / Джада Пинкетт Смит / / / name / Шерри Шеперд / / / name / Седрик «Развлекатель» / / / name / Энди Рихтер / / / name / Андре Бенджамин / / / name / Фрэнк Уэлкер / / / name / Том МакГрат / / / name / Джессика Честейн / / / name / Брайан Крэнстон / / / name / Мартин Шорт / / / name / Крис Миллер / / / name / Кристофер Найтс / / / name / Конрад Вернон / / / name / Винни Джонс / / / name / Стив Джонс / / / name / Ник Флетчер / / / name / Паз Вега / / / name / Дэнни Джейкобс / / / name / Дэн О`Коннор / / / name / Эрик Дарнелл / / / name / Стивен Кеарин / / / name / Эмили Нордвинд / / / directors / / / name / Эрик Дарнелл / / / name / Том МакГрат / / / name / Конрад Вернон / / / producers / / / name / Мирей Сория / / / name / Марк Свифт / / / name / Холли Эдвардс / / / screenwriters / / / name / Эрик Дарнелл / / / name / Ноа Баумбах / / / /

Video #1
ID : 1
Format : AVC
Format/Info : Advanced Video Codec
Format profile : High@L4.0
Format settings, CABAC : Yes
Format settings, ReFrames : 12 frames
Codec ID : avc1
Codec ID/Info : Advanced Video Coding
Duration : 1h 33mn
Bit rate mode : Variable
Bit rate : 2 587 Kbps
Width : 1 024 pixels
Height : 576 pixels
Display aspect ratio : 16:9
Frame rate mode : Variable
Frame rate : 23.976 fps
Minimum frame rate : 23.810 fps
Maximum frame rate : 24.390 fps
Color space : YUV
Chroma subsampling : 4:2:0
Bit depth : 8 bits
Scan type : Progressive
Bits/(Pixel*Frame) : 0.183
Stream size : 1.69 GiB (84%)
Writing library : x264 core 120
Encoding settings : cabac=1 / ref=12 / deblock=1:-3:-3 / analyse=0x3:0x133 / me=tesa / subme=11 / psy=1 / psy_rd=0.40:0.00 / mixed_ref=1 / me_range=64 / chroma_me=1 / trellis=2 / 8x8dct=1 / cqm=0 / deadzone=21,11 / fast_pskip=1 / chroma_qp_offset=-2 / threads=3 / sliced_threads=0 / nr=0 / decimate=1 / interlaced=0 / bluray_compat=0 / constrained_intra=0 / bframes=16 / b_pyramid=2 / b_adapt=2 / b_bias=0 / direct=1 / weightb=1 / open_gop=0 / weightp=2 / keyint=240 / keyint_min=24 / scenecut=40 / intra_refresh=0 / rc=crf / mbtree=0 / crf=19.0 / qcomp=0.70 / qpmin=3 / qpmax=69 / qpstep=4 / ip_ratio=1.30 / pb_ratio=1.20 / aq=2:0.80
Encoded date : UTC 2012-10-09 10:30:53
Tagged date : UTC 2012-10-13 04:31:22
Color primaries : BT.709-5, BT.1361, IEC 61966-2-4, SMPTE RP177
Transfer characteristics : BT.709-5, BT.1361
Matrix coefficients : BT.709-5, BT.1361, IEC 61966-2-4 709, SMPTE RP177

Video #2
ID : 11
Format : JPEG
Codec ID : jpeg
Duration : 1h 33mn
Bit rate mode : Variable
Bit rate : 1 302 bps
Width : 640 pixels
Height : 360 pixels
Display aspect ratio : 16:9
Frame rate mode : Variable
Frame rate : 0.003 fps
Minimum frame rate : 0.002 fps
Maximum frame rate : 0.011 fps
Compression mode : Lossy
Bits/(Pixel*Frame) : 1.884
Stream size : 848 KiB (0%)
Encoded date : UTC 2012-10-13 06:15:21
Tagged date : UTC 2012-10-13 06:15:23

Audio #1
ID : 2
Format : AAC
Format/Info : Advanced Audio Codec
Format profile : LC
Codec ID : 40
Duration : 1h 33mn
Bit rate mode : Variable
Bit rate : 165 Kbps
Maximum bit rate : 272 Kbps
Channel(s) : 2 channels
Channel positions : Front: L R
Sampling rate : 48.0 KHz
Compression mode : Lossy
Stream size : 110 MiB (5%)
Language : Russian
Encoded date : UTC 2012-10-13 06:12:39
Tagged date : UTC 2012-10-13 06:12:43

Audio #2
ID : 3
Format : AAC
Format/Info : Advanced Audio Codec
Format profile : LC
Codec ID : 40
Duration : 1h 33mn
Bit rate mode : Variable
Bit rate : 165 Kbps
Maximum bit rate : 271 Kbps
Channel(s) : 2 channels
Channel positions : Front: L R
Sampling rate : 48.0 KHz
Compression mode : Lossy
Stream size : 110 MiB (5%)
Language : Ukrainian
Encoded date : UTC 2012-10-13 06:12:39
Tagged date : UTC 2012-10-13 06:12:48

Audio #3
ID : 4
Format : AAC
Format/Info : Advanced Audio Codec
Format profile : LC
Codec ID : 40
Duration : 1h 33mn
Bit rate mode : Variable
Bit rate : 165 Kbps
Maximum bit rate : 281 Kbps
Channel(s) : 2 channels
Channel positions : Front: L R
Sampling rate : 48.0 KHz
Compression mode : Lossy
Stream size : 110 MiB (5%)
Language : English
Encoded date : UTC 2012-10-13 06:12:39
Tagged date : UTC 2012-10-13 06:12:53

Text #1
ID : 5
Format : Timed text
Muxing mode : sbtl
Codec ID : tx3g
Duration : 1h 22mn
Bit rate mode : Variable
Bit rate : 110 bps
Stream size : 66.6 KiB (0%)
Language : Russian
Encoded date : UTC 2012-10-13 06:12:39
Tagged date : UTC 2012-10-13 06:15:11

Text #2
ID : 6
Format : Timed text
Muxing mode : sbtl
Codec ID : tx3g
Duration : 1h 22mn
Bit rate mode : Variable
Bit rate : 1 bps
Stream size : 823 Bytes (0%)
Language : Russian
Encoded date : UTC 2012-10-13 06:12:39
Tagged date : UTC 2012-10-13 06:15:11

Text #3
ID : 7
Format : Timed text
Muxing mode : sbtl
Codec ID : tx3g
Duration : 1h 22mn
Bit rate mode : Variable
Bit rate : 101 bps
Stream size : 61.0 KiB (0%)
Language : Ukrainian
Encoded date : UTC 2012-10-13 06:12:39
Tagged date : UTC 2012-10-13 06:15:11

Text #4
ID : 8
Format : Timed text
Muxing mode : sbtl
Codec ID : tx3g
Duration : 1h 22mn
Bit rate mode : Variable
Bit rate : 2 bps
Stream size : 984 Bytes (0%)
Language : Ukrainian
Encoded date : UTC 2012-10-13 06:12:39
Tagged date : UTC 2012-10-13 06:15:11

Text #5
ID : 9
Format : Timed text
Muxing mode : sbtl
Codec ID : tx3g
Duration : 1h 22mn
Bit rate mode : Variable
Bit rate : 73 bps
Stream size : 44.0 KiB (0%)
Language : English
Encoded date : UTC 2012-10-13 06:12:39
Tagged date : UTC 2012-10-13 06:15:11

Text #6
ID : 10
Format : Apple text
Codec ID : text
Duration : 1h 33mn
Bit rate mode : Variable
Bit rate : 1 bps
Stream size : 375 Bytes (0%)
Language : English
Encoded date : UTC 2012-10-13 06:15:11
Tagged date : UTC 2012-10-13 06:15:11

Menu
00:00:00.000 : Chapter 1
00:05:16.316 : Chapter 2
00:10:51.985 : Chapter 3
00:19:46.310 : Chapter 4
00:27:49.835 : Chapter 5
00:32:50.552 : Chapter 6
00:40:34.974 : Chapter 7
00:46:51.976 : Chapter 8
00:52:00.534 : Chapter 9
00:58:55.157 : Chapter 10
01:00:23.411 : Chapter 11
01:04:19.314 : Chapter 12
01:10:59.672 : Chapter 13
01:15:30.317 : Chapter 14
01:21:09.782 : Chapter 15
01:22:48.630 : Chapter 16
x264 [info]: frame I:1209 Avg QP:18.75 size: 82459 PSNR Mean Y:45.71 U:48.45 V:48.46 Avg:46.36 Global:45.80
x264 [info]: frame P:37186 Avg QP:20.91 size: 23515 PSNR Mean Y:44.77 U:47.69 V:47.68 Avg:45.46 Global:44.64
x264 [info]: frame B:95971 Avg QP:22.45 size: 8731 PSNR Mean Y:44.03 U:47.32 V:47.28 Avg:44.77 Global:44.00
x264 [info]: consecutive B-frames: 4.7% 5.5% 19.9% 33.6% 13.9% 13.1% 1.9% 5.6% 0.6% 0.2% 0.2% 0.2% 0.2% 0.4% 0.0% 0.1% 0.0%
x264 [info]: mb I I16..4: 7.1% 61.1% 31.7%
x264 [info]: mb P I16..4: 2.5% 12.7% 2.9% P16..4: 26.8% 23.0% 9.6% 3.5% 0.4% skip:18.7%
x264 [info]: mb B I16..4: 0.4% 2.0% 0.4% B16..8: 25.5% 14.7% 3.5% direct: 3.6% skip:49.9% L0:39.6% L1:41.8% BI:18.6%
x264 [info]: 8x8 transform intra:69.0% inter:53.7%
x264 [info]: coded y,uvDC,uvAC intra: 73.0% 74.1% 50.0% inter: 16.0% 13.8% 5.4%
x264 [info]: i16 v,h,dc,p: 13% 14% 7% 66%
x264 [info]: i8 v,h,dc,ddl,ddr,vr,hd,vl,hu: 12% 14% 8% 8% 11% 11% 12% 11% 14%
x264 [info]: i4 v,h,dc,ddl,ddr,vr,hd,vl,hu: 12% 13% 10% 7% 14% 11% 12% 8% 11%
x264 [info]: i8c dc,h,v,p: 33% 28% 17% 22%
x264 [info]: Weighted P-Frames: Y:7.4% UV:5.4%
x264 [info]: ref P L0: 53.3% 12.3% 13.9% 5.3% 3.5% 3.1% 2.3% 1.5% 1.2% 1.2% 1.0% 1.0% 0.3% 0.0%
x264 [info]: ref B L0: 76.1% 9.4% 4.9% 2.2% 2.0% 1.5% 1.3% 0.9% 0.9% 0.6% 0.3%
x264 [info]: ref B L1: 93.1% 6.9%
x264 [info]: SSIM Mean Y:0.9862165 (18.606db)
x264 [info]: PSNR Mean Y:44.248 U:47.430 V:47.401 Avg:44.977 Global:44.184 kb/s:2586.72
XID: Apple:vendor_id:2012-422792
contentID: 550561282
Screenwriters: Эрик Дарнелл, Ноа Баумбах
Producers: Мирей Сория, Марк Свифт, Холли Эдвардс
Director: Эрик Дарнелл, Том МакГрат, Конрад Вернон
Cast: Бен Стиллер, Саша Барон Коэн, Дэвид Швиммер, Фрэнсис МакДорманд, Крис Рок, Джада Пинкетт Смит, Шерри Шеперд, Седрик «Развлекатель», Энди Рихтер, Андре Бенджамин, Фрэнк Уэлкер, Том МакГрат, Джессика Честейн, Брайан Крэнстон, Мартин Шорт, Крис Миллер, Кристофер Найтс, Конрад Вернон, Винни Джонс, Стив Джонс, Ник Флетчер, Паз Вега, Дэнни Джейкобс, Дэн О`Коннор, Эрик Дарнелл, Стивен Кеарин, Эмили Нордвинд
Rating: 3
Long Deion: Лев Алекс, зебра Марти, гиппопотамиха Глория и жираф Мелман, а также король Джулиан, Морис, Морт и Пингвины все еще пытаются вернуться в Нью-Йорк. На этот раз их путь пройдет через Европу, где они откроют свой цирк.
Deion: Лев Алекс, зебра Марти, гиппопотамиха Глория и жираф Мелман, а также король Джулиан, Морис, Морт и Пингвины все еще пытаются вернуться в Нью-Йорк. На этот раз их путь пройдет через Европу, где они откроют свой цирк.
Release Date: 2012-06-08T07:00:00Z
Genre: Comedy
Artist: Эрик Дарнелл, Том МакГрат, Конрад Вернон
Name: Мадагаскар 3














   Похожие торренты   Торрент   Размер 
В этой теме нет новых непрочитанных сообщений. Мадагаскар 3 / Madagascar 3: Europe's Most Wanted (2012) BDRip 1080p

145 | 23

5.76 ГБ

В этой теме нет новых непрочитанных сообщений. Мадагаскар 3 / Madagascar 3: Europe's Most Wanted (2012) BDRip-AVC от RG 25 Кадр

13 | 3

2.18 ГБ

В этой теме нет новых непрочитанных сообщений. Мадагаскар 3 / Madagascar 3: Europe's Most Wanted (2012) BDRip от HQ-ViDEO

53 | 12

1.96 ГБ

В этой теме нет новых непрочитанных сообщений. Мадагаскар 3 / Madagascar 3: Europe's Most Wanted (2012) BDRip 720p от HQ-ViDEO

95 | 10

4.19 ГБ

В этой теме нет новых непрочитанных сообщений. Мадагаскар 3 / Madagascar 3: Europe's Most Wanted (2012) BDRip-AVC от potroks | D | Лицензия

103 | 3

1.46 ГБ

В этой теме нет новых непрочитанных сообщений. Мадагаскар 3 / Madagascar 3: Europe's Most Wanted (2012) BDRip от HQCLUB | Лицензия

1379 | 41

1.45 ГБ

В этой теме нет новых непрочитанных сообщений. Мадагаскар 3 / Madagascar 3: Europe's Most Wanted (2012) BDRip 1080p | Лицензия

26 | 4

10.47 ГБ




Вы не можете начинать темы
Вы не можете отвечать на сообщения
Вы не можете редактировать свои сообщения
Вы не можете удалять свои сообщения
Вы не можете добавлять вложения

Перейти:  
Для Мосгорсуда, Роскомнадзора и рекламодателей: mosgorsud-torrent[собачка]yandex.ru
 Вход
ppkBB3cker v.2 © 2008-2014 @ PPK
[ Time : 0.036s | 15 Queries | GZIP : Off ]

Торрент трекер RUTOR.IN, Не можете зайти на rutor.org? Какой новый адрес рутор? Какое зеркало рутор? Не работает rutor.org и зеркала? Тогда наш торрент специально для вас. Rutor.in неофициальное зеркало rutor. В случае если у Вас заблокирован rutor или вдруг Вы не можете на него зайти, то Вы без труда сможете скачать бесплатно и без рекламы последние новинки кино, игр, сериалов и прочего у нас, на Rutor.in. Не нужно использовать прокси, чтобы зайти на рутор, достаточно воспользоваться нашим ресурсом. Все новые фильмы, игры, сериалы, книги и музыка за 2013 и 2014 годы через торрент бесплатно. Скачивайте фильмы в хорошем качестве, игры для пк, xbox, playstation без регистрации. У нас вы найдете новые Зарубежные сериалы и Русские сериалы 2013, 2014, 2015 годов. Оставайтесь с нами, качайте любимые фильмы, игры, сериалы, книги и музыку.
cron