img image001 image001 image001 image001 image001 image001 image001 image001 image001 image001 image001 image001 image001 image001 image001

Planets Sun Sun Sun
Статистика раздачи
Автор: Снежана | Размер: 893.21 МБ | Добавлен: 27 июл 2013
Раздают: 827    Качают: 205
Скачать торрент
Скачать торрент
Описание торрента

СообщениеДобавлено: 27 июл 2013 

#77
Страна: СССР
Год выпуска: 1961, 1955
Студия: Союзмультфильм

Жанр: мультфильм, короткометражка, семейный
Продолжительность: 00:39:18 + 00:45:36

Перевод: не требуется
Оригинальная аудиодорожка: русский
Cубтитры: нет

Режиссер: Борис Дежкин, Владимир Полковников

Чиполлино:
Знакомая каждому с детства сказка Джанни Родари рассказывает о мальчике-луковке и его друзьях из «фруктово-овощного» сказочного мира, которые борются за справедливость и мечтают о добре… рисованный , экранизация сказки Джанни Родари сценарист Мстислав Пащенко художник-постановщик Перч Саркисян xудожники В. Валерианова, Константин Карпов аниматоры Фаина Епифанова, Борис Дежкин, Вадим Долгих, Владимир Крумин, О. Столбова, Виктор Арсентьев, Р. Овивян, Анатолий Солин, Сергей Дежкин, Виталий Бобров, Константин Чикин, Владимир Карп оператор Елена Петрова директор Федор Иванов композитор Карен Хачатурян звукооператор Борис Фильчиков редактор Раиса Фричинская декорации Вера Черкинская текст песен (стихов) Вадим Коростылев роли озвучивали: Вера Орлова, Михаил Названов, Виктор Кольцов, Анастасия Георгиевская...

Заколдованный мальчик:
Мультипликационный фильм по мотивам повести С. Лагерлеф «Чудесное путешествие Нильса с дикими гусями». Сказочная история рассказывает об озорнике Нильсе, который обидел волшебного Гнома, за что был наказан: превращен в карлика и унесен гусями в Лапландию. Много благородных поступков совершил мальчик, прежде чем Гном снял с него чары... рисованный , сценарист Михаил Вольпин художники-постановщики Роман Качанов, Гражина Брашишките, Лев Мильчин xудожники Петр Коробаев, Ирина Светлица, И. Прокофьева аниматоры Борис Меерович, Лев Позднеев, Рената Миренкова, Игорь Подгорский, Федор Хитрук, Владимир Крумин, Геннадий Новожилов, Борис Чани, Константин Чикин, Татьяна Таранович, Фаина Епифанова, Л. Попов, Вадим Долгих оператор Михаил Друян композитор Владимир Юровский звукооператор Николай Прилуцкий роли озвучивали: Анатолий Кубацкий (Гном) , Эраст Гарин (Мартин) , Георгий Вицин (Розенбом) , Валентина Сперантова (Нильс) , Алексей Консовский, Т. Струкова монтажер Нина Майорова…








Исходник: DVD5 R5
Тип релиза: DVDRip
Контейнер: AVI

Видео 1: 640x480 (4:3), 25 fps, XviD ~ 1476 kbps avg, 0.192 bit/pixel
Видео 2: 640x480 (4:3), 25 fps, XviD ~ 1357 kbps avg, 0.177 bit/pixel
Аудио: 48 kHz, MP3, 2 ch, 128.00 kbps

Раздача от:
Общее
Полное имя : Chipollino.1961.DVDRip_[Youtracker]_by_AVP Studio.avi
Формат : AVI
Формат/Информация : Audio Video Interleave
Размер файла : 435 Мбайт
Продолжительность : 37 м.
Общий поток : 1613 Кбит/сек
Программа кодирования : VirtualDubMod 1.5.10.3 | www.virtualdub-fr.org || (build 2550/release)
Библиотека кодирования : VirtualDubMod build 2550/release

Видео
Идентификатор : 0
Формат : MPEG-4 Visual
Профиль формата : Advanced Simple@L5
Параметр BVOP формата : 1
Параметр QPel формата : Нет
Параметр GMC формата : Без точки перехода
Параметр матрицы формата : Выборочная
Идентификатор кодека : XVID
Идентификатор кодека/Подсказка : XviD
Продолжительность : 37 м.
Битрейт : 1476 Кбит/сек
Ширина : 640 пикселей
Высота : 480 пикселей
Соотношение сторон : 4:3
Частота кадров : 25,000 кадров/сек
Цветовое пространство : YUV
Субдискретизация насыщенности : 4:2:0
Битовая глубина : 8 бит
Тип развёртки : Прогрессивная
Метод сжатия : С потерями
Бит/(Пиксели*Кадры) : 0.192
Размер потока : 398 Мбайт (91%)
Библиотека кодирования : XviD 65

Аудио
Идентификатор : 1
Формат : MPEG Audio
Версия формата : Version 1
Профиль формата : Layer 3
Идентификатор кодека : 55
Идентификатор кодека/Подсказка : MP3
Продолжительность : 37 м.
Вид битрейта : Постоянный
Битрейт : 128 Кбит/сек
Каналы : 2 канала
Частота : 48,0 КГц
Метод сжатия : С потерями
Размер потока : 34,5 Мбайт (8%)
Выравнивание : Соединение по промежуткам
Продолжительность промежутка : 40 мс. (1,00 видеокадр)
Время предзагрузки промежутка : 504 мс.
Библиотека кодирования : L3.99r
Настройки программы : -m s -V 4 -q 2 -lowpass 17 -b 128

Общее
Полное имя : Zakoldovannyj.mal'chik.1955.DVDRip_[Youtracker]_by_AVP Studio.avi
Формат : AVI
Формат/Информация : Audio Video Interleave
Размер файла : 458 Мбайт
Продолжительность : 42 м.
Общий поток : 1495 Кбит/сек
Программа кодирования : VirtualDubMod 1.5.10.3 | www.virtualdub-fr.org || (build 2550/release)
Библиотека кодирования : VirtualDubMod build 2550/release

Видео
Идентификатор : 0
Формат : MPEG-4 Visual
Профиль формата : Advanced Simple@L5
Параметр BVOP формата : 1
Параметр QPel формата : Нет
Параметр GMC формата : Без точки перехода
Параметр матрицы формата : Выборочная
Идентификатор кодека : XVID
Идентификатор кодека/Подсказка : XviD
Продолжительность : 42 м.
Битрейт : 1357 Кбит/сек
Ширина : 640 пикселей
Высота : 480 пикселей
Соотношение сторон : 4:3
Частота кадров : 25,000 кадров/сек
Цветовое пространство : YUV
Субдискретизация насыщенности : 4:2:0
Битовая глубина : 8 бит
Тип развёртки : Прогрессивная
Метод сжатия : С потерями
Бит/(Пиксели*Кадры) : 0.177
Размер потока : 416 Мбайт (91%)
Библиотека кодирования : XviD 65

Аудио
Идентификатор : 1
Формат : MPEG Audio
Версия формата : Version 1
Профиль формата : Layer 3
Идентификатор кодека : 55
Идентификатор кодека/Подсказка : MP3
Продолжительность : 42 м.
Вид битрейта : Постоянный
Битрейт : 128 Кбит/сек
Каналы : 2 канала
Частота : 48,0 КГц
Метод сжатия : С потерями
Размер потока : 39,2 Мбайт (9%)
Выравнивание : Соединение по промежуткам
Продолжительность промежутка : 40 мс. (1,00 видеокадр)
Время предзагрузки промежутка : 504 мс.
Библиотека кодирования : L3.99r
Настройки программы : -m s -V 4 -q 2 -lowpass 17 -b 128



Крупный план, Полная реставрация изображения и звука.



   Похожие торренты   Торрент   Размер 
В этой теме нет новых непрочитанных сообщений. Чиполлино, Заколдованный мальчик (1955, 1961) DVDRip-AVC от Youtracker

157 | 29

1.46 ГБ

В этой теме нет новых непрочитанных сообщений. Чиполлино, Заколдованный мальчик (1955, 1961) DVDRip от Youtracker

181 | 35

1.45 ГБ

В этой теме нет новых непрочитанных сообщений. Мальчик и голубь (1961) TVRip

63 | 5

360.29 МБ

В этой теме нет новых непрочитанных сообщений. Мальчик в девочке / It's a Boy Girl Thing (2006) DVDRip от Youtracker

68 | 4

1.37 ГБ

В этой теме нет новых непрочитанных сообщений. Двенадцатая ночь (1955) DVDRip от Youtracker

11 | 6

743.88 МБ

В этой теме нет новых непрочитанных сообщений. Дело Румянцева (1955) DVDRip-AVC от Youtracker

16 | 6

1.46 ГБ

В этой теме нет новых непрочитанных сообщений. Максим Перепелица (1955) DVDRip от Youtracker

578 | 59

1.46 ГБ




Вы не можете начинать темы
Вы не можете отвечать на сообщения
Вы не можете редактировать свои сообщения
Вы не можете удалять свои сообщения
Вы не можете добавлять вложения

Перейти:  
Для Мосгорсуда, Роскомнадзора и рекламодателей: mosgorsud-torrent[собачка]yandex.ru
 Вход
ppkBB3cker v.2 © 2008-2014 @ PPK
[ Time : 0.023s | 14 Queries | GZIP : On ]

Торрент трекер RUTOR.IN, Не можете зайти на rutor.org? Какой новый адрес рутор? Какое зеркало рутор? Не работает rutor.org и зеркала? Тогда наш торрент специально для вас. Rutor.in неофициальное зеркало rutor. В случае если у Вас заблокирован rutor или вдруг Вы не можете на него зайти, то Вы без труда сможете скачать бесплатно и без рекламы последние новинки кино, игр, сериалов и прочего у нас, на Rutor.in. Не нужно использовать прокси, чтобы зайти на рутор, достаточно воспользоваться нашим ресурсом. Все новые фильмы, игры, сериалы, книги и музыка за 2013 и 2014 годы через торрент бесплатно. Скачивайте фильмы в хорошем качестве, игры для пк, xbox, playstation без регистрации. У нас вы найдете новые Зарубежные сериалы и Русские сериалы 2013, 2014, 2015 годов. Оставайтесь с нами, качайте любимые фильмы, игры, сериалы, книги и музыку.