img image001 image001 image001 image001 image001 image001 image001 image001 image001 image001 image001 image001 image001 image001 image001

Planets Sun Sun Sun
Статистика раздачи
Автор: Снежана | Размер: 1.45 ГБ | Добавлен: 27 июл 2013
Раздают: 181    Качают: 35
Скачать торрент
Скачать торрент
Описание торрента

СообщениеДобавлено: 27 июл 2013 

#77
Страна: СССР
Год выпуска: 1961, 1955
Студия: Союзмультфильм

Жанр: мультфильм, короткометражка, семейный
Продолжительность: 00:39:18 + 00:45:36

Перевод: не требуется
Оригинальная аудиодорожка: русский
Cубтитры: нет

Режиссер: Борис Дежкин, Владимир Полковников

Чиполлино:
Знакомая каждому с детства сказка Джанни Родари рассказывает о мальчике-луковке и его друзьях из «фруктово-овощного» сказочного мира, которые борются за справедливость и мечтают о добре… рисованный , экранизация сказки Джанни Родари сценарист Мстислав Пащенко художник-постановщик Перч Саркисян xудожники В. Валерианова, Константин Карпов аниматоры Фаина Епифанова, Борис Дежкин, Вадим Долгих, Владимир Крумин, О. Столбова, Виктор Арсентьев, Р. Овивян, Анатолий Солин, Сергей Дежкин, Виталий Бобров, Константин Чикин, Владимир Карп оператор Елена Петрова директор Федор Иванов композитор Карен Хачатурян звукооператор Борис Фильчиков редактор Раиса Фричинская декорации Вера Черкинская текст песен (стихов) Вадим Коростылев роли озвучивали: Вера Орлова, Михаил Названов, Виктор Кольцов, Анастасия Георгиевская...

Заколдованный мальчик:
Мультипликационный фильм по мотивам повести С. Лагерлеф «Чудесное путешествие Нильса с дикими гусями». Сказочная история рассказывает об озорнике Нильсе, который обидел волшебного Гнома, за что был наказан: превращен в карлика и унесен гусями в Лапландию. Много благородных поступков совершил мальчик, прежде чем Гном снял с него чары... рисованный , сценарист Михаил Вольпин художники-постановщики Роман Качанов, Гражина Брашишките, Лев Мильчин xудожники Петр Коробаев, Ирина Светлица, И. Прокофьева аниматоры Борис Меерович, Лев Позднеев, Рената Миренкова, Игорь Подгорский, Федор Хитрук, Владимир Крумин, Геннадий Новожилов, Борис Чани, Константин Чикин, Татьяна Таранович, Фаина Епифанова, Л. Попов, Вадим Долгих оператор Михаил Друян композитор Владимир Юровский звукооператор Николай Прилуцкий роли озвучивали: Анатолий Кубацкий (Гном) , Эраст Гарин (Мартин) , Георгий Вицин (Розенбом) , Валентина Сперантова (Нильс) , Алексей Консовский, Т. Струкова монтажер Нина Майорова…








Исходник: DVD5 R5
Тип релиза: DVDRip
Контейнер: AVI

Видео 1: 704x528 (4:3), 25 fps, XviD ~ 2121 kbps avg, 0.228 bit/pixel
Видео 2: 688x512 (4:3), 25 fps, XviD ~ 2124 kbps avg, 0.241 bit/pixel
Аудио: 48 kHz, AC3, 6 ch, 448.00 kbps

Раздача от:
Общее
Полное имя : Chipollino.1961.DVDRip_[Youtracker]_by_AVP Studio.avi
Формат : AVI
Формат/Информация : Audio Video Interleave
Размер файла : 695 Мбайт
Продолжительность : 37 м.
Общий поток : 2579 Кбит/сек
Программа кодирования : VirtualDubModRus 1.5.10.2 (build 2542/release)
Библиотека кодирования : VirtualDubMod build 2542/release

Видео
Идентификатор : 0
Формат : MPEG-4 Visual
Профиль формата : Advanced Simple@L5
Параметр BVOP формата : 1
Параметр QPel формата : Нет
Параметр GMC формата : Без точки перехода
Параметр матрицы формата : Выборочная
Идентификатор кодека : XVID
Идентификатор кодека/Подсказка : XviD
Продолжительность : 37 м.
Битрейт : 2121 Кбит/сек
Ширина : 704 пикселя
Высота : 528 пикселей
Соотношение сторон : 4:3
Частота кадров : 25,000 кадров/сек
Цветовое пространство : YUV
Субдискретизация насыщенности : 4:2:0
Битовая глубина : 8 бит
Тип развёртки : Прогрессивная
Метод сжатия : С потерями
Бит/(Пиксели*Кадры) : 0.228
Размер потока : 572 Мбайт (82%)
Библиотека кодирования : XviD 65

Аудио
Идентификатор : 1
Формат : AC-3
Формат/Информация : Audio Coding 3
Расширение режима : CM (complete main)
Идентификатор кодека : 2000
Продолжительность : 37 м.
Вид битрейта : Постоянный
Битрейт : 448 Кбит/сек
Каналы : 6 каналов
Расположение каналов : Front: L C R, Side: L R, LFE
Частота : 48,0 КГц
Битовая глубина : 16 бит
Метод сжатия : С потерями
Размер потока : 121 Мбайт (17%)
Выравнивание : Разделение по промежуткам
Продолжительность промежутка : 40 мс. (1,00 видеокадр)
Время предзагрузки промежутка : 500 мс

Общее
Полное имя : Zakoldovannyj.mal'chik.1955.DVDRip_[Youtracker]_by_AVP Studio.avi
Формат : AVI
Формат/Информация : Audio Video Interleave
Размер файла : 791 Мбайт
Продолжительность : 42 м.
Общий поток : 2581 Кбит/сек
Программа кодирования : VirtualDubMod 1.5.10.3 | www.virtualdub-fr.org || (build 2550/release)
Библиотека кодирования : VirtualDubMod build 2550/release

Видео
Идентификатор : 0
Формат : MPEG-4 Visual
Профиль формата : Advanced Simple@L5
Параметр BVOP формата : 1
Параметр QPel формата : Нет
Параметр GMC формата : Без точки перехода
Параметр матрицы формата : Выборочная
Идентификатор кодека : XVID
Идентификатор кодека/Подсказка : XviD
Продолжительность : 42 м.
Битрейт : 2124 Кбит/сек
Ширина : 688 пикселей
Высота : 512 пикселей
Соотношение сторон : 4:3
Частота кадров : 25,000 кадров/сек
Цветовое пространство : YUV
Субдискретизация насыщенности : 4:2:0
Битовая глубина : 8 бит
Тип развёртки : Прогрессивная
Метод сжатия : С потерями
Бит/(Пиксели*Кадры) : 0.241
Размер потока : 651 Мбайт (82%)
Библиотека кодирования : XviD 65

Аудио
Идентификатор : 1
Формат : AC-3
Формат/Информация : Audio Coding 3
Расширение режима : CM (complete main)
Идентификатор кодека : 2000
Продолжительность : 42 м.
Вид битрейта : Постоянный
Битрейт : 448 Кбит/сек
Каналы : 6 каналов
Расположение каналов : Front: L C R, Side: L R, LFE
Частота : 48,0 КГц
Битовая глубина : 16 бит
Метод сжатия : С потерями
Размер потока : 137 Мбайт (17%)
Выравнивание : Разделение по промежуткам
Продолжительность промежутка : 40 мс. (1,00 видеокадр)
Время предзагрузки промежутка : 500 мс



Крупный план, Полная реставрация изображения и звука.



   Похожие торренты   Торрент   Размер 
В этой теме нет новых непрочитанных сообщений. Чиполлино, Заколдованный мальчик (1955, 1961) DVDRip от Youtracker

827 | 205

893.21 МБ

В этой теме нет новых непрочитанных сообщений. Чиполлино, Заколдованный мальчик (1955, 1961) DVDRip-AVC от Youtracker

157 | 29

1.46 ГБ

В этой теме нет новых непрочитанных сообщений. Мальчик и голубь (1961) TVRip

63 | 5

360.29 МБ

В этой теме нет новых непрочитанных сообщений. Мальчик в девочке / It's a Boy Girl Thing (2006) DVDRip от Youtracker

68 | 4

1.37 ГБ

В этой теме нет новых непрочитанных сообщений. Двенадцатая ночь (1955) DVDRip от Youtracker

11 | 6

743.88 МБ

В этой теме нет новых непрочитанных сообщений. Дело Румянцева (1955) DVDRip от Youtracker

275 | 20

1.46 ГБ

В этой теме нет новых непрочитанных сообщений. Максим Перепелица (1955) DVDRip от Youtracker

578 | 59

1.46 ГБ




Вы не можете начинать темы
Вы не можете отвечать на сообщения
Вы не можете редактировать свои сообщения
Вы не можете удалять свои сообщения
Вы не можете добавлять вложения

Перейти:  
Для Мосгорсуда, Роскомнадзора и рекламодателей: mosgorsud-torrent[собачка]yandex.ru
 Вход
ppkBB3cker v.2 © 2008-2014 @ PPK
[ Time : 0.026s | 14 Queries | GZIP : Off ]

Торрент трекер RUTOR.IN, Не можете зайти на rutor.org? Какой новый адрес рутор? Какое зеркало рутор? Не работает rutor.org и зеркала? Тогда наш торрент специально для вас. Rutor.in неофициальное зеркало rutor. В случае если у Вас заблокирован rutor или вдруг Вы не можете на него зайти, то Вы без труда сможете скачать бесплатно и без рекламы последние новинки кино, игр, сериалов и прочего у нас, на Rutor.in. Не нужно использовать прокси, чтобы зайти на рутор, достаточно воспользоваться нашим ресурсом. Все новые фильмы, игры, сериалы, книги и музыка за 2013 и 2014 годы через торрент бесплатно. Скачивайте фильмы в хорошем качестве, игры для пк, xbox, playstation без регистрации. У нас вы найдете новые Зарубежные сериалы и Русские сериалы 2013, 2014, 2015 годов. Оставайтесь с нами, качайте любимые фильмы, игры, сериалы, книги и музыку.