img image001 image001 image001 image001 image001 image001 image001 image001 image001 image001 image001 image001 image001 image001 image001

Planets Sun Sun Sun
Статистика раздачи
Автор: Снежана | Размер: 3.35 ГБ | Добавлен: 27 июл 2013
Раздают: 27    Качают: 4
Скачать торрент
Скачать торрент
Описание торрента

СообщениеДобавлено: 27 июл 2013 

#77

Информация о фильме
Название: Обитель зла: Вырождение
Оригинальное название: Resident Evil: Degeneration
Год выхода: 2008
Жанр: мультфильм, ужасы, фантастика, боевик, триллер,
Режиссер: Макото Камия
В ролях: Элисон Корт, Пол Мерсье, Лаура Бэйли, Стивен Блум, Криспин Фриман, Дэйв Маллоу, Жоржетт Роуз, Роджер Крэйг Смит, Майкл Сорич

О фильме:
Нападение зомби приносит хаос в аэропорт Харвардвиль. Клэр Рэдфилд и Леон Кеннеди боровшиеся с корпорацией «Umbrella» во время трагедии в Раккун Сити 7 лет назад вновь вернулись. Они готовы к битве с противником который ищет мести после смерти его семьи в Раккун Сити. Смертельный G-вирус выпущен на свободу и рождает нового мутировавшего монстра. Уничтожат ли Клэр и Леон этот вирус до того как история повторится?
Общее
Полное имя : D:ТорентыObitel.zla.Vyrozhdenie.2008.DVD-5VIDEO_TSVTS_09_1.VOB
Формат : MPEG-PS
Размер файла : 1024 Мбайт
Продолжительность : 28 м.
Режим общего битрейта : Переменный
Общий поток : 5012 Кбит/сек

Видео
Идентификатор : 224 (0xE0)
Формат : MPEG Video
Версия формата : Version 2
Профиль формата : Main@Main
Параметр BVOP формата : Да
Параметр матрицы формата : Выборочная
Параметр GOP формата : M=3, N=15
Продолжительность : 28 м.
Вид битрейта : Переменный
Битрейт : 4465 Кбит/сек
Максимальный битрейт : 9800 Кбит/сек
Ширина : 720 пикселей
Высота : 576 пикселей
Соотношение сторон : 4:3
Частота кадров : 25,000 кадров/сек
Стандарт вещания : PAL
Цветовое пространство : YUV
Субдискретизация насыщенности : 4:2:0
Битовая глубина : 8 бит
Тип развёртки : Прогрессивная
Порядок развёртки : Верхнее поле первое
Метод сжатия : С потерями
Бит/(Пиксели*Кадры) : 0.431
Размер потока : 912 Мбайт (89%)

Аудио
Идентификатор : 189 (0xBD)-128 (0x80)
Формат : AC-3
Формат/Информация : Audio Coding 3
Расширение режима : CM (complete main)
Параметр Endianness формата : Big
Режим смешивания : DVD-Video
Продолжительность : 28 м.
Вид битрейта : Постоянный
Битрейт : 448 Кбит/сек
Каналы : 6 каналов
Расположение каналов : Front: L C R, Side: L R, LFE
Частота : 48,0 КГц
Битовая глубина : 16 бит
Метод сжатия : С потерями
Размер потока : 91,5 Мбайт (9%)

Текст #1
Идентификатор : 189 (0xBD)-33 (0x21)
Формат : RLE
Формат/Информация : Run-length encoding
Режим смешивания : DVD-Video
Задержка видео : 10 с.

Текст #2
Идентификатор : 189 (0xBD)-32 (0x20)
Формат : RLE
Формат/Информация : Run-length encoding
Режим смешивания : DVD-Video

Меню


Страна: Япония
Продолжительность: 97 мин. / 01:37
Перевод: Профессиональный (многоголосый, закадровый)

Файл
Кодек: MPEG2
Качество: DVD5
Видео: PAL 4:3 (720x576) VBR 4465 кбит/сек, 25.000 кадров-сек
Звук: Русский (AC3,48.0КГц, 6ch, 448 кбит/сек )
Субтитры: Украинские





   Похожие торренты   Торрент   Размер 
В этой теме нет новых непрочитанных сообщений. Обитель зла: Вырождение / Resident Evil: Degeneration (2008) DVD9

27 | 3

6.58 ГБ

В этой теме нет новых непрочитанных сообщений. Обитель зла: Вырождение / Resident Evil: Degeneration (2008) BDRip от HQCLUB

59 | 12

1.46 ГБ

В этой теме нет новых непрочитанных сообщений. Обитель зла: Вырождение / Resident Evil: Degeneration (2008) BDRip от HQ-ViDEO

8 | 4

1.75 ГБ

В этой теме нет новых непрочитанных сообщений. Обитель зла: Вырождение / Resident Evil: Degeneration (2008) BDRip 720 от SuperMin

7 | 19

3.85 ГБ

В этой теме нет новых непрочитанных сообщений. Обитель зла: Вырождение / Resident Evil: Degeneration (2008) BDRip 720p

6 | 4

4.36 ГБ

В этой теме нет новых непрочитанных сообщений. Обитель зла: Вырождение / Resident Evil: Degeneration (2008) BDRip-AVC от ExKinoRay

19 | 8

1.98 ГБ

В этой теме нет новых непрочитанных сообщений. Обитель зла: Вырождение / Resident Evil: Degeneration (2008) BDRip от Freeisland

2 | 5

2.15 ГБ




Вы не можете начинать темы
Вы не можете отвечать на сообщения
Вы не можете редактировать свои сообщения
Вы не можете удалять свои сообщения
Вы не можете добавлять вложения

Перейти:  
Для Мосгорсуда, Роскомнадзора и рекламодателей: mosgorsud-torrent[собачка]yandex.ru
 Вход
ppkBB3cker v.2 © 2008-2014 @ PPK
[ Time : 0.083s | 14 Queries | GZIP : On ]

Торрент трекер RUTOR.IN, Не можете зайти на rutor.org? Какой новый адрес рутор? Какое зеркало рутор? Не работает rutor.org и зеркала? Тогда наш торрент специально для вас. Rutor.in неофициальное зеркало rutor. В случае если у Вас заблокирован rutor или вдруг Вы не можете на него зайти, то Вы без труда сможете скачать бесплатно и без рекламы последние новинки кино, игр, сериалов и прочего у нас, на Rutor.in. Не нужно использовать прокси, чтобы зайти на рутор, достаточно воспользоваться нашим ресурсом. Все новые фильмы, игры, сериалы, книги и музыка за 2013 и 2014 годы через торрент бесплатно. Скачивайте фильмы в хорошем качестве, игры для пк, xbox, playstation без регистрации. У нас вы найдете новые Зарубежные сериалы и Русские сериалы 2013, 2014, 2015 годов. Оставайтесь с нами, качайте любимые фильмы, игры, сериалы, книги и музыку.