img image001 image001 image001 image001 image001 image001 image001 image001 image001 image001 image001 image001 image001 image001 image001

Planets Sun Sun Sun
Статистика раздачи
Автор: Снежана | Размер: 7.81 ГБ | Добавлен: 27 июл 2013, 09:36
Раздают: 28    Качают: 2
Скачать торрент
Скачать торрент
Описание торрента

СообщениеДобавлено: 27 июл 2013, 09:36 

#77

Информация о фильме
Название: Финес и Ферб - Сезон 3
Оригинальное название: Phineas and Ferb - Season 3
Год выхода: 2011-2012
Жанр: Комедия, Семейный, Мультфильм
Режиссер: Джей Лэндер / Jay Lander, Роберт Ф. Хьюз / Robert F. Hughes
Роли озвучивали: Дмитрий Череватенко, Мария Павлова, Максим Глебов, Алексей Фатеев, Антон Батырев, Анастасия Лапина и другие.

О фильме:
Перед вами третий сезон веселого мультсериала о неутомимых братьях Финесе и Фербе, отмеченного престижной премией «Эмми». Приключения неутомимых братьев продолжаются! Непоседливый Финес и молчаливый Ферб постоянно придумывают и изобретают что-то новенькое. В третьем сезоне ребята успеют полетать на ковре-самолете, построить ферму на Луне и вырастить гигантских муравьев. А их домашний питомец – утконос по кличке Перри, который на самом деле работает секретным агентом под прикрытием, по-прежнему будет спасать мир от сумасшедшего учёного, доктора Фуфелшмерца.
Страна: США
Студия: Disney
Продолжительность: 00:22:33 - одна серия
Перевод: Профессиональный (дублированный) - НеваФильм (Канал Disney)

Файл
Качество: WEB-DLRip
Формат: AVI
Видео: Xvid, 720x400, 23.976fps, ~1357 кб/с
Аудио: Русский, профессиональный дублированый, MP3 48000Hz stereo 192kbps
Аудио 2: Английский, оригинал, MP3 48000Hz stereo 192kbps
Субтитры: отсутствуют



General
Format : AVI
Format/Info : Audio Video Interleave
File size : 283 MiB
Duration : 22mn 33s
Overall bit rate : 1 756 Kbps
Writing application : VirtualDubMod 1.5.10.2 (build 2542/release)
Writing library : VirtualDubMod build 2542/release

Video
ID : 0
Format : MPEG-4 Visual
Format profile : Advanced Simple@L5
Format settings, BVOP : 1
Format settings, QPel : No
Format settings, GMC : No warppoints
Format settings, Matrix : Default (MPEG)
Codec ID : XVID
Codec ID/Hint : XviD
Duration : 22mn 33s
Bit rate : 1 358 Kbps
Width : 720 pixels
Height : 400 pixels
Display aspect ratio : 16:9
Frame rate : 23.976 fps
Color space : YUV
Chroma subsampling : 4:2:0
Bit depth : 8 bits
Scan type : Progressive
Compression mode : Lossy
Bits/(Pixel*Frame) : 0.197
Stream size : 219 MiB (77%)
Writing library : XviD 1.2.1 (UTC 2008-12-04)

Audio #1
ID : 1
Format : MPEG Audio
Format version : Version 1
Format profile : Layer 3
Mode : Joint stereo
Mode extension : MS Stereo
Codec ID : 55
Codec ID/Hint : MP3
Duration : 22mn 33s
Bit rate mode : Constant
Bit rate : 192 Kbps
Channel(s) : 2 channels
Sampling rate : 48.0 KHz
Compression mode : Lossy
Stream size : 31.0 MiB (11%)
Alignment : Aligned on interleaves
Interleave, duration : 42 ms (1.00 video frame)
Interleave, preload duration : 504 ms
Writing library : LAME3.99r
Encoding settings : -m j -V 4 -q 3 -lowpass 18.6 -b 192

Audio #2
ID : 2
Format : MPEG Audio
Format version : Version 1
Format profile : Layer 3
Mode : Joint stereo
Mode extension : MS Stereo
Codec ID : 55
Codec ID/Hint : MP3
Duration : 22mn 33s
Bit rate mode : Constant
Bit rate : 192 Kbps
Channel(s) : 2 channels
Sampling rate : 48.0 KHz
Compression mode : Lossy
Stream size : 31.0 MiB (11%)
Alignment : Aligned on interleaves
Interleave, duration : 42 ms (1.00 video frame)
Interleave, preload duration : 504 ms
Writing library : LAME3.99r
Encoding settings : -m j -V 4 -q 3 -lowpass 18.6 -b 192

1. "Не выходя из дома"/"Кэндермия" - 13 октября 2012 г.
2. "Беги, Кэндес, беги"/"Последний поезд в Прижучвилль" - 29 сентября 2012 г.
3. "Клипорама в День Рождения Финеса"* - 17 ноября 2012 г.
4. "В желудке у акулы"/"Лунная ферма" - 21 октября 2012 г.
5. "Задавай глупые вопросы"/"Не тот утконос" - 12 октября 2012 г.
6. "Кэндес вне зоны доступа"/"Поездка на ковре-самолёте" - 29 сентября 2012 г.
7. "День плохой причёски"/"Мясной рулет" - 20 октября 2012 г.
8. "Прерванные Финес и Ферб"/"Настоящий мальчик" - 14 октября 2012 г.
9. "Мама, ты меня слышишь?"/"Поездочка" - 13 октября 2012 г.
10."Двигай фишки"/"Тур де Ферб" - 31 октября 2012 г.
11. "Мой лучший гол" - 21 октября 2012 г.
12. "Перри, рекламная пауза"/"В яблочко" - 3 ноября 2012 г.
13. "Дом с привидениями"/"Проклятие Кэндес" (Хеллоуиновский выпуск) - 31 октября 2012 г.
14. "Побег из башни страха"/"The Remains of the Platypus" - 4 ноября 2012 г.
15. "Фербова Латынь"/"Чипсы-гремлины" - 25 августа 2012 г.
16. "Рождество Финеса и Ферба" (10-минутная серия) - 5 декабря 2012 г.
17. "Доисторическое Триштатье"/"Династия Фуфел" - 11 ноября 2012 г.
18. "Экскалиферб" - 10 ноября 2012 г.
19. "Agent Doof"/"Phineas and Ferb and the Temple of Juatchadoon"
20. "Монстр из головы"/"Муравьищи" - 4 ноября 2012 г.
21. "Мам, ты дома?"/"Монограмм младший" - 11 ноября 2012 г.
22. "Судьбоносная доставка"/"Давайте прыгать" - 27 октября 2012 г.
23. "Самый тихий день"/"Хулиган и умник" - 24 ноября 2012 г.
24. "В поисках мракоягод"/"Идентификация Бьюфорда" - 25 ноября 2012 г.
25. "Мип над Берлином"
26. "The Mom Attractor"/"Cranius Maximus"
27. "Малыш Крайки"/"Ферб ТВ" - 23 ноября 2012 г.
28. "Во сне, как наяву"/"Близкий контакт" - 2 декабря 2012 г.
29. "В кафешке с врагом"/"Сокровища Триштатья: Ботинок тайн" - 6 октября 2012 г.
30. "Doofapus"/"Norm Unleashed"
31. "А где Перри? - Часть 1" - 2 ноября 2012 г.
32. "А где Перри? - Часть 2" - 30 ноября 2012 г.
33. "Столкновение миров"/"Дорога в Денвилль" - 3 ноября 2012 г.
34. "Blackout"/"What'd I Miss?"- 5 января 2013 г.
35. "This Is Your Backstory"

В раздаче отсутствуют : 19,25,26,30,34,35 серии.
* - название переведено с украинского дубляжа, т.к. русское официальное название неизвестно.




   Похожие торренты   Торрент   Размер 
В этой теме нет новых непрочитанных сообщений. Финес и Ферб / Phineas and Ferb [S01] (2007) WEB-DL 720p

51 | 3

3.82 ГБ

В этой теме нет новых непрочитанных сообщений. Финес и Ферб / Phineas and Ferb [S02] (2009-2011) SATRip by JIexa

21 | 3

6.49 ГБ

В этой теме нет новых непрочитанных сообщений. Финес и Ферб / Phineas and Ferb [S01] (2007-2008) SATRip by JIexa

41 | 4

6.91 ГБ

В этой теме нет новых непрочитанных сообщений. Финес и Ферб / Phineas and Ferb [S01-04, 01-101] (2007-2013) WEB-DLRip от Fartuna

39 | 51

30.42 ГБ

В этой теме нет новых непрочитанных сообщений. Финес и Ферб / Phineas and Ferb [S02] (2009-2011) WEBDLRip 720p

15 | 4

5.78 ГБ

В этой теме нет новых непрочитанных сообщений. Финес и Ферб / Phineas and Ferb [S01-04] (2007-2012) WEB-DL 720p l 1080p l D

87 | 65

31.24 ГБ

В этой теме нет новых непрочитанных сообщений. Финес и Ферб / Phineas and Ferb [S02] [11, 16, 26, 27, 39 из 39] (2009-2010) DVD9 R5 от Youtracker | лицензия

7 | 3

6.65 ГБ




Вы не можете начинать темы
Вы не можете отвечать на сообщения
Вы не можете редактировать свои сообщения
Вы не можете удалять свои сообщения
Вы не можете добавлять вложения

Перейти:  
Для Мосгорсуда, Роскомнадзора и рекламодателей: mosgorsud-torrent[собачка]yandex.ru
Настройки
ppkBB3cker v.2 © 2008-2014 @ PPK
[ Time : 0.024s | 16 Queries | GZIP : Off ]
CGP [Extreme] output time : 0.00023s | 0 Queries | GZIP : Off

Торрент трекер RUTOR.IN, Не можете зайти на rutor.org? Какой новый адрес рутор? Какое зеркало рутор? Не работает rutor.org и зеркала? Тогда наш торрент специально для вас. Rutor.in неофициальное зеркало rutor. В случае если у Вас заблокирован rutor или вдруг Вы не можете на него зайти, то Вы без труда сможете скачать бесплатно и без рекламы последние новинки кино, игр, сериалов и прочего у нас, на Rutor.in. Не нужно использовать прокси, чтобы зайти на рутор, достаточно воспользоваться нашим ресурсом. Все новые фильмы, игры, сериалы, книги и музыка за 2013 и 2014 годы через торрент бесплатно. Скачивайте фильмы в хорошем качестве, игры для пк, xbox, playstation без регистрации. У нас вы найдете новые Зарубежные сериалы и Русские сериалы 2013, 2014, 2015 годов. Оставайтесь с нами, качайте любимые фильмы, игры, сериалы, книги и музыку.