img image001 image001 image001 image001 image001 image001 image001 image001 image001 image001 image001 image001 image001 image001 image001

Planets Sun Sun Sun
Статистика раздачи
Автор: Снежана | Размер: 4.37 ГБ | Добавлен: 27 июл 2013
Раздают: 98    Качают: 2
Скачать торрент
Скачать торрент
Описание торрента

СообщениеДобавлено: 27 июл 2013 

#77

Информация о фильме
Название: Феи
Оригинальное название: Tinker Bell
Год выхода: 2008
Жанр: мультфильм, фэнтези, семейный
Режиссер: Брэдли Рэймонд
В ролях: Мэй Уитман, Кристин Ченоуэт, Люси Лью, Америка Феррера, Джейн Хоррокс, Джесси МакКартни, Джефф Беннетт, Роб Полсен...

О фильме:
Добро пожаловать в волшебный мир, населенный очаровательными обитательницами Долины Фей. Это чудесное место, наполненное мифами, магией и волшебством. Долина Фей - это целое королевство, каждый житель которого обладает своим, необыкновенным талантам, а все вместе феи выполняют очень важную работу - они заботятся о природе и помогают временам года сменять друг друга: помогают листьям менять цвет, солнечным лучам - растапливать снег, зверям, оставшимся на зимнюю спячку - выбираться из своих нор и берлог.
Фея Динь-Динь считает, что ее талант по починке кастрюль и чайников, не так важен, как умения других фей. Но когда Динь-Динь решает заняться чем-то другим, из этого не получается ничего, кроме всеобщего замешательства! С помощью своих подруг она понимает, что главное в жизни - быть честной с самой собой, и тогда-то и родится подлинная магия.



Страна: США
Продолжительность: 01:17:58
Перевод: Дубляж

Файл
Кодек: H264
Качество: BDRip 1080p
Видео: 1920x1080, 7377 Kbps, 23,976 fps
Звук: 48 kHz, AC3, 6c, 640 kbps
Субтитры: Русские, английские

Семпл



Общее
Уникальный идентификатор : 173197896588701367772999958809703192611 (0x824CB397C3F1F091ABFB98A4F8519823)
Формат : Matroska
Версия формата : Version 4 / Version 2
Размер файла : 4,37 Гбайт
Продолжительность : 1 ч. 17 м.
Общий поток : 8017 Кбит/сек
Название фильма : Tinker Bell (2008) BDRip 1080p от Dimok
Дата кодирования : UTC 2010-02-22 21:41:31
Программа кодирования : mkvmerge v5.9.0 ('On The Loose') built on Dec 9 2012 15:37:01
Библиотека кодирования : libebml v1.3.0 + libmatroska v1.4.0

Видео
Идентификатор : 1
Формат : AVC
Формат/Информация : Advanced Video Codec
Профиль формата : High@L4.1
Параметр CABAC формата : Да
Параметр ReFrames формата : 4 кадра
Идентификатор кодека : V_MPEG4/ISO/AVC
Продолжительность : 1 ч. 17 м.
Битрейт : 7377 Кбит/сек
Ширина : 1920 пикселей
Высота : 1080 пикселей
Соотношение сторон : 16:9
Режим частоты кадров : Постоянный
Частота кадров : 23,976 кадра/сек
Цветовое пространство : YUV
Субдискретизация насыщенности : 4:2:0
Битовая глубина : 8 бит
Тип развёртки : Прогрессивная
Бит/(Пиксели*Кадры) : 0.148
Размер потока : 3,93 Гбайт (90%)
Библиотека кодирования : x264 core 129 r2230 1cffe9f
Настройки программы : cabac=1 / ref=4 / deblock=1:0:0 / analyse=0x3:0x133 / me=umh / subme=10 / psy=1 / psy_rd=1.00:0.10 / mixed_ref=1 / me_range=32 / chroma_me=1 / trellis=2 / 8x8dct=1 / cqm=0 / deadzone=21,11 / fast_pskip=0 / chroma_qp_offset=-3 / threads=6 / lookahead_threads=1 / sliced_threads=0 / nr=0 / decimate=1 / interlaced=0 / bluray_compat=0 / constrained_intra=0 / bframes=3 / b_pyramid=2 / b_adapt=2 / b_bias=0 / direct=3 / weightb=1 / open_gop=0 / weightp=2 / keyint=240 / keyint_min=23 / scenecut=40 / intra_refresh=0 / rc_lookahead=66 / rc=2pass / mbtree=1 / bitrate=7377 / ratetol=1.0 / qcomp=0.62 / qpmin=0 / qpmax=69 / qpstep=4 / cplxblur=20.0 / qblur=0.5 / ip_ratio=1.40 / aq=1:1.00
Язык : English
Default : Да
Forced : Нет

Аудио
Идентификатор : 2
Формат : AC-3
Формат/Информация : Audio Coding 3
Расширение режима : CM (complete main)
Параметр Endianness формата : Big
Идентификатор кодека : A_AC3
Продолжительность : 1 ч. 17 м.
Вид битрейта : Постоянный
Битрейт : 640 Кбит/сек
Каналы : 6 каналов
Расположение каналов : Front: L C R, Side: L R, LFE
Частота : 48,0 КГц
Битовая глубина : 16 бит
Метод сжатия : С потерями
Размер потока : 357 Мбайт (8%)
Заголовок : Дубляж
Язык : Russian
Default : Да
Forced : Нет

Текст #1
Идентификатор : 3
Формат : UTF-8
Идентификатор кодека : S_TEXT/UTF8
Идентификатор кодека/Информация : UTF-8 Plain Text
Язык : Russian
Default : Да
Forced : Нет

Текст #2
Идентификатор : 4
Формат : UTF-8
Идентификатор кодека : S_TEXT/UTF8
Идентификатор кодека/Информация : UTF-8 Plain Text
Язык : English
Default : Нет
Forced : Нет

Меню
00:00:00.000 : :Chapter 1
00:05:24.652 : :Chapter 2
00:10:35.478 : :Chapter 3
00:15:58.357 : :Chapter 4
00:20:48.125 : :Chapter 5
00:25:26.451 : :Chapter 6
00:30:35.852 : :Chapter 7
00:35:54.952 : :Chapter 8
00:40:45.587 : :Chapter 9
00:45:27.652 : :Chapter 10
00:50:52.625 : :Chapter 11
00:55:15.364 : :Chapter 12
01:00:36.852 : :Chapter 14
01:05:32.752 : :Chapter 15
01:10:48.362 : :Chapter 16
01:15:24.625 : :Chapter 17



   Похожие торренты   Торрент   Размер 
В этой теме нет новых непрочитанных сообщений. Феи. Коллекция / Tinker Bell. Collection (2008-2014) BDRip 1080p от MediaClub | D

90 | 52

36.94 ГБ

В этой теме нет новых непрочитанных сообщений. Феи / Tinker Bell (2008) Blu-ray 1080p | D

9 | 15

30.64 ГБ

В этой теме нет новых непрочитанных сообщений. Феи / Tinker Bell (2008) BDRip от RAMpage CHG

41 | 3

701.58 МБ

В этой теме нет новых непрочитанных сообщений. Феи / Tinker Bell (2008) BDRip от HQ-ViDEO

1141 | 49

1.46 ГБ

В этой теме нет новых непрочитанных сообщений. Феи / Tinker Bell (2008) BDRip от HQCLUB | Лицензия

231 | 6

1.45 ГБ

В этой теме нет новых непрочитанных сообщений. Феи / Tinker Bell (2008) BDRip 720p от FreeHD

34 | 5

3.13 ГБ

В этой теме нет новых непрочитанных сообщений. Феи: Коллекция / Tinker Bell: Collection (2008-2014) BDRip | Лицензия

85 | 30

8.71 ГБ




Вы не можете начинать темы
Вы не можете отвечать на сообщения
Вы не можете редактировать свои сообщения
Вы не можете удалять свои сообщения
Вы не можете добавлять вложения

Перейти:  
Для Мосгорсуда, Роскомнадзора и рекламодателей: mosgorsud-torrent[собачка]yandex.ru
 Вход
ppkBB3cker v.2 © 2008-2014 @ PPK
[ Time : 2.102s | 15 Queries | GZIP : Off ]

Торрент трекер RUTOR.IN, Не можете зайти на rutor.org? Какой новый адрес рутор? Какое зеркало рутор? Не работает rutor.org и зеркала? Тогда наш торрент специально для вас. Rutor.in неофициальное зеркало rutor. В случае если у Вас заблокирован rutor или вдруг Вы не можете на него зайти, то Вы без труда сможете скачать бесплатно и без рекламы последние новинки кино, игр, сериалов и прочего у нас, на Rutor.in. Не нужно использовать прокси, чтобы зайти на рутор, достаточно воспользоваться нашим ресурсом. Все новые фильмы, игры, сериалы, книги и музыка за 2013 и 2014 годы через торрент бесплатно. Скачивайте фильмы в хорошем качестве, игры для пк, xbox, playstation без регистрации. У нас вы найдете новые Зарубежные сериалы и Русские сериалы 2013, 2014, 2015 годов. Оставайтесь с нами, качайте любимые фильмы, игры, сериалы, книги и музыку.