img image001 image001 image001 image001 image001 image001 image001 image001 image001 image001 image001 image001 image001 image001 image001

Planets Sun Sun Sun
Статистика раздачи
Автор: Снежана | Размер: 10.68 ГБ | Добавлен: 27 июл 2013
Раздают: 53    Качают: 9
Скачать торрент
Скачать торрент
Описание торрента

СообщениеДобавлено: 27 июл 2013 

Питер Пэн / Peter Pan
«It will live in your heart forever!»


#77

Страна: США
Студия: Walt Disney Productions
Жанр: мультфильм, фэнтези, приключения, семейный, музыка
Продолжительность: 01:16:46
Год выпуска: 1953

Перевод: Русский дубляж [лицензия]
Русские субтитры: есть
Оригинальная аудиодорога: английская
Режиссёр: Клайд Джероними / Clyde Geronimi, Уилфред Джексон / Wilfred Jackson, Хэмильтон Ласки / Hamilton Luske
Роли озвучивали: Бобби Дрисколл, Катрин Бомонт, Ганс Конрид, Билл Томпсон, Хэзер Эйнджел, Пол Коллинз, Томми Ласки, Кэнди Кандидо, Том Конуэй, Tony Butala / Харриет Оуэн, Блэйн Уивер, Кори Бертон, Джефф Беннетт, Кэт Сауси, Эндрю МакДана, Роджер Рис, Спенсер Бреслин, Брэдли Пирс, Куинн Бесвик
Роли дублировали: Роман Умаров, Юлия Рудина, Виктор Костецкий, Юрий Герцман, Елена Шульман

Описание:
Уолт Дисней зовет нас с собой в волшебную страну Неверленд, где живет удивительный мальчик, который умеет летать и отказывается взрослеть. Это веселый выдумщик, храбрец и проказник Питер Пэн!
Однажды в поисках собственной тени Питер попадает в Лондон нашего мира и становится другом маленькой Венди и ее братьев Майкла и Джона, и, конечно же, он берет своих ночных друзей с собой в Неверленд, навстречу потрясающим приключениям.
Героям предстоит встретиться с феей Тинкербелл и дружной ватагой Питера Пэна, спасти индейскую принцессу Тигровую Лилию из лап пиратов и сразиться с их демоническим главарем капитаном Крюком!..

Тип релиза: BDRip 1080p
Контейнер: MKV
Видео кодек: x264
Аудио кодек: AC3
Видео: AVC / High@L4.1 / 2 pass / 23,976 fps / 1440x1080p / 7,5 Mbps / 0.201
Аудио 1: AC3 / 5.1 ch / 640 kbps / Русский дубляж BD CEE
Аудио 2: AC3 / 5.1 ch / 640 kbps / Английский original BD CEE
Субтитры: [softsub SRT]
Русские форсированные (включены по умолчанию)
Русские на песни
Русские полные
Украинские полные
Английские на песни
Английские полные
Английские SDH
Дополнительно: Сохранены оригинальные чаптеры как на Blu-ray
Рип от: HDMaNiAcS


Раздача от:











Общее
Уникальный идентификатор : 201482973484265920608798006396164650400 (0x9794358D97388455A9ABA538016235A0)
Полное имя : F:Скачка торрентPeter.Pan.1953.BDRip1080p(HDMaNiAcS).mkv
Формат : Matroska
Версия формата : Version 4 / Version 2
Размер файла : 4,71 Гбайт
Продолжительность : 1 ч. 16 м.
Общий поток : 8783 Кбит/сек
Название фильма : Peter Pan (1953) by HDMaNiAcS
Дата кодирования : UTC 2010-02-22 21:41:31
Программа кодирования : mkvmerge v5.9.0 ('On The Loose') built on Dec 9 2012 15:37:01
Библиотека кодирования : libebml v1.3.0 + libmatroska v1.4.0

Видео
Идентификатор : 1
Формат : AVC
Формат/Информация : Advanced Video Codec
Профиль формата : High@L4.1
Параметр CABAC формата : Да
Параметр ReFrames формата : 4 кадра
Идентификатор кодека : V_MPEG4/ISO/AVC
Продолжительность : 1 ч. 16 м.
Битрейт : 7500 Кбит/сек
Ширина : 1440 пикселей
Высота : 1080 пикселей
Соотношение сторон : 4:3
Режим частоты кадров : Постоянный
Частота кадров : 23,976 кадра/сек
Цветовое пространство : YUV
Субдискретизация насыщенности : 4:2:0
Битовая глубина : 8 бит
Тип развёртки : Прогрессивная
Бит/(Пиксели*Кадры) : 0.201
Размер потока : 3,93 Гбайт (83%)
Заголовок : Peter Pan (1953)
Библиотека кодирования : x264 core 125 r2200 999b753
Настройки программы : cabac=1 / ref=4 / deblock=1:-1:-1 / analyse=0x3:0x113 / me=tesa / subme=11 / psy=1 / psy_rd=1.00:0.00 / mixed_ref=1 / me_range=24 / chroma_me=1 / trellis=2 / 8x8dct=1 / cqm=0 / deadzone=21,11 / fast_pskip=1 / chroma_qp_offset=-2 / threads=12 / lookahead_threads=2 / sliced_threads=0 / nr=0 / decimate=1 / interlaced=0 / bluray_compat=0 / constrained_intra=0 / bframes=8 / b_pyramid=2 / b_adapt=2 / b_bias=0 / direct=3 / weightb=1 / open_gop=0 / weightp=2 / keyint=240 / keyint_min=23 / scenecut=40 / intra_refresh=0 / rc=2pass / mbtree=0 / bitrate=7500 / ratetol=1.0 / qcomp=0.60 / qpmin=10 / qpmax=69 / qpstep=4 / cplxblur=20.0 / qblur=0.5 / ip_ratio=1.40 / pb_ratio=1.30 / aq=2:0.60
Язык : English
Default : Да
Forced : Нет

Аудио #1
Идентификатор : 2
Формат : AC-3
Формат/Информация : Audio Coding 3
Расширение режима : CM (complete main)
Параметр Endianness формата : Big
Идентификатор кодека : A_AC3
Продолжительность : 1 ч. 16 м.
Вид битрейта : Постоянный
Битрейт : 640 Кбит/сек
Каналы : 6 каналов
Расположение каналов : Front: L C R, Side: L R, LFE
Частота : 48,0 КГц
Битовая глубина : 16 бит
Метод сжатия : С потерями
Размер потока : 351 Мбайт (7%)
Заголовок : AC3 / 5.1 ch / 640 kbps / Русский дубляж BD CEE
Язык : Russian
Default : Да
Forced : Нет

Аудио #2
Идентификатор : 3
Формат : AC-3
Формат/Информация : Audio Coding 3
Расширение режима : CM (complete main)
Параметр Endianness формата : Big
Идентификатор кодека : A_AC3
Продолжительность : 1 ч. 16 м.
Вид битрейта : Постоянный
Битрейт : 640 Кбит/сек
Каналы : 6 каналов
Расположение каналов : Front: L C R, Side: L R, LFE
Частота : 48,0 КГц
Битовая глубина : 16 бит
Метод сжатия : С потерями
Размер потока : 351 Мбайт (7%)
Заголовок : AC3 / 5.1 ch / 640 kbps / Английский original BD CEE
Язык : English
Default : Нет
Forced : Нет

Текст #1
Идентификатор : 4
Формат : UTF-8
Идентификатор кодека : S_TEXT/UTF8
Идентификатор кодека/Информация : UTF-8 Plain Text
Заголовок : Русские форсированные
Язык : Russian
Default : Да
Forced : Нет

Текст #2
Идентификатор : 5
Формат : UTF-8
Идентификатор кодека : S_TEXT/UTF8
Идентификатор кодека/Информация : UTF-8 Plain Text
Заголовок : Русские на песни
Язык : Russian
Default : Нет
Forced : Нет

Текст #3
Идентификатор : 6
Формат : UTF-8
Идентификатор кодека : S_TEXT/UTF8
Идентификатор кодека/Информация : UTF-8 Plain Text
Заголовок : Русские полные
Язык : Russian
Default : Нет
Forced : Нет

Текст #4
Идентификатор : 7
Формат : UTF-8
Идентификатор кодека : S_TEXT/UTF8
Идентификатор кодека/Информация : UTF-8 Plain Text
Заголовок : Украинские полные
Язык : Ukrainian
Default : Нет
Forced : Нет

Текст #5
Идентификатор : 8
Формат : UTF-8
Идентификатор кодека : S_TEXT/UTF8
Идентификатор кодека/Информация : UTF-8 Plain Text
Заголовок : Английские на песни
Язык : English
Default : Нет
Forced : Нет

Текст #6
Идентификатор : 9
Формат : UTF-8
Идентификатор кодека : S_TEXT/UTF8
Идентификатор кодека/Информация : UTF-8 Plain Text
Заголовок : Английские полные
Язык : English
Default : Нет
Forced : Нет

Текст #7
Идентификатор : 10
Формат : UTF-8
Идентификатор кодека : S_TEXT/UTF8
Идентификатор кодека/Информация : UTF-8 Plain Text
Заголовок : Английские SDH
Язык : English
Default : Нет
Forced : Нет

Меню
00:00:00.000 : :Chapter 01
00:01:49.526 : :Chapter 02
00:03:46.351 : :Chapter 03
00:07:40.877 : :Chapter 04
00:10:20.453 : :Chapter 05
00:12:22.783 : :Chapter 06
00:15:09.700 : :Chapter 07
00:16:13.639 : :Chapter 08
00:18:06.043 : :Chapter 09
00:20:28.602 : :Chapter 10
00:25:18.058 : :Chapter 11
00:27:38.490 : :Chapter 12
00:31:48.823 : :Chapter 13
00:33:59.704 : :Chapter 14
00:36:31.397 : :Chapter 15
00:38:19.672 : :Chapter 16
00:42:30.047 : :Chapter 17
00:43:46.081 : :Chapter 18
00:45:51.540 : :Chapter 19
00:46:59.608 : :Chapter 20
00:50:08.588 : :Chapter 21
00:52:52.627 : :Chapter 22
00:56:25.673 : :Chapter 23
00:58:28.880 : :Chapter 24
01:01:59.298 : :Chapter 25
01:04:30.491 : :Chapter 26
01:06:21.727 : :Chapter 27
01:07:40.431 : :Chapter 28
01:10:13.667 : :Chapter 29
01:12:47.404 : :Chapter 30
01:14:25.210 : :Chapter 31
01:16:46.226 : :Chapter 32






Питер Пэн 2: Возвращение в Нетландию / Return to Never Land


#77

Страна: США, Канада, Австралия
Студия: Walt Disney Pictures
Жанр: мультфильм, фэнтези, приключения, семейный, музыка
Продолжительность: 01:12:32
Год выпуска: 2002

Перевод: Русский дубляж [лицензия]
Русские субтитры: есть
Оригинальная аудиодорога: английская
Режиссёр: Робин Бадд / Robin Budd, Донован Кук / Donovan Cook
Роли озвучивали: Харриет Оуэн, Блэйн Уивер, Кори Бертон, Джефф Беннетт, Кэт Сауси, Эндрю МакДана, Роджер Рис, Спенсер Бреслин, Брэдли Пирс, Куинн Бесвик
Роли дублировали: Виктория Слуцкая, Юлия Рудина, Роман Умаров, Виктор Костецкий, Юрий Герцман

Описание:
Венди выросла, теперь у неё свои собственные дети и каждый вечер она рассказывает им истории про Питера Пэна, мальчика, отказавшегося становиться взрослым. Упрямая 12-летняя дочь Венди, Джейн, не имеет ни малейшего желания слушать всю эту ерунду.
Именно поэтому Капитан Крюк использует девочку в качестве заложника в войне против своего главного врага. Питер Пэн, Тинкер Белл и Потерянные Мальчики прибывают к ней на помощь; однако, даже они не могут заставить поверить Джейн в волшебный мир. Если она не верит, то значит она не может летать, а другого пути для возвращения домой нет.
Всё усугубляется тем, что без веры Джейн в фей, Тинкер Белл может умереть. Когда фея медленно начинает исчезать, Питер предпринимает всё возможное, чтобы спасти девочку от безжалостного Капитана Крюка и доказать ей, что с верой в волшебство и крепкой дружбой нет ничего невозможного.

Тип релиза: BDRip 1080p
Контейнер: MKV
Видео кодек: x264
Аудио кодек: AC3
Видео: AVC / High@L4.1 / 2 pass / 23,976 fps / 1828x1080p / 10,5 Mbps / 0.222
Аудио 1: AC3 / 5.1 ch / 640 kbps / Русский дубляж BD CEE
Аудио 2: AC3 / 5.1 ch / 640 kbps / Английский original BD CEE
Субтитры: [softsub SRT]
Русские форсированные (включены по умолчанию)
Русские полные
Украинские полные
Английские полные
Дополнительно: Сохранены оригинальные чаптеры как на Blu-ray
Рип от: HDMaNiAcS


Раздача от:











Общее
Уникальный идентификатор : 233106888272040347063145726012546454392 (0xAF5EC0EE541C846690063C8DE8D99378)
Полное имя : F:Скачка торрентПитер Пэн 2Peter.Pan.Return.to.Never.Land.2002.BDRip1080p(HDMaNiAcS).mkv
Формат : Matroska
Версия формата : Version 4 / Version 2
Размер файла : 5,97 Гбайт
Продолжительность : 1 ч. 12 м.
Общий поток : 11,8 Мбит/сек
Название фильма : Peter Pan Return to Never Land (2002) by HDMaNiAcS
Дата кодирования : UTC 2010-02-22 21:41:31
Программа кодирования : mkvmerge v5.9.0 ('On The Loose') built on Dec 9 2012 15:37:01
Библиотека кодирования : libebml v1.3.0 + libmatroska v1.4.0

Видео
Идентификатор : 1
Формат : AVC
Формат/Информация : Advanced Video Codec
Профиль формата : High@L4.1
Параметр CABAC формата : Да
Параметр ReFrames формата : 4 кадра
Идентификатор кодека : V_MPEG4/ISO/AVC
Продолжительность : 1 ч. 12 м.
Битрейт : 10,5 Мбит/сек
Ширина : 1828 пикселей
Высота : 1080 пикселей
Соотношение сторон : 1,693
Режим частоты кадров : Постоянный
Частота кадров : 23,976 кадра/сек
Цветовое пространство : YUV
Субдискретизация насыщенности : 4:2:0
Битовая глубина : 8 бит
Тип развёртки : Прогрессивная
Бит/(Пиксели*Кадры) : 0.222
Размер потока : 5,20 Гбайт (87%)
Заголовок : Peter Pan Return to Never Land (2002)
Библиотека кодирования : x264 core 125 r2200 999b753
Настройки программы : cabac=1 / ref=4 / deblock=1:-1:-1 / analyse=0x3:0x113 / me=tesa / subme=11 / psy=1 / psy_rd=1.00:0.00 / mixed_ref=1 / me_range=24 / chroma_me=1 / trellis=2 / 8x8dct=1 / cqm=0 / deadzone=21,11 / fast_pskip=1 / chroma_qp_offset=-2 / threads=12 / lookahead_threads=2 / sliced_threads=0 / nr=0 / decimate=1 / interlaced=0 / bluray_compat=0 / constrained_intra=0 / bframes=8 / b_pyramid=2 / b_adapt=2 / b_bias=0 / direct=3 / weightb=1 / open_gop=0 / weightp=2 / keyint=240 / keyint_min=23 / scenecut=40 / intra_refresh=0 / rc=2pass / mbtree=0 / bitrate=10500 / ratetol=1.0 / qcomp=0.60 / qpmin=10 / qpmax=69 / qpstep=4 / cplxblur=20.0 / qblur=0.5 / ip_ratio=1.40 / pb_ratio=1.30 / aq=2:0.90
Язык : English
Default : Да
Forced : Нет

Аудио #1
Идентификатор : 2
Формат : AC-3
Формат/Информация : Audio Coding 3
Расширение режима : CM (complete main)
Параметр Endianness формата : Big
Идентификатор кодека : A_AC3
Продолжительность : 1 ч. 12 м.
Вид битрейта : Постоянный
Битрейт : 640 Кбит/сек
Каналы : 6 каналов
Расположение каналов : Front: L C R, Side: L R, LFE
Частота : 48,0 КГц
Битовая глубина : 16 бит
Метод сжатия : С потерями
Размер потока : 332 Мбайт (5%)
Заголовок : AC3 / 5.1 ch / 640 kbps / Русский дубляж BD CEE
Язык : Russian
Default : Да
Forced : Нет

Аудио #2
Идентификатор : 3
Формат : AC-3
Формат/Информация : Audio Coding 3
Расширение режима : CM (complete main)
Параметр Endianness формата : Big
Идентификатор кодека : A_AC3
Продолжительность : 1 ч. 12 м.
Вид битрейта : Постоянный
Битрейт : 640 Кбит/сек
Каналы : 6 каналов
Расположение каналов : Front: L C R, Side: L R, LFE
Частота : 48,0 КГц
Битовая глубина : 16 бит
Метод сжатия : С потерями
Размер потока : 332 Мбайт (5%)
Заголовок : AC3 / 5.1 ch / 640 kbps / Английский original BD CEE
Язык : English
Default : Нет
Forced : Нет

Текст #1
Идентификатор : 4
Формат : UTF-8
Идентификатор кодека : S_TEXT/UTF8
Идентификатор кодека/Информация : UTF-8 Plain Text
Заголовок : Русские форсированные
Язык : Russian
Default : Да
Forced : Нет

Текст #2
Идентификатор : 5
Формат : UTF-8
Идентификатор кодека : S_TEXT/UTF8
Идентификатор кодека/Информация : UTF-8 Plain Text
Заголовок : Русские полные
Язык : Russian
Default : Нет
Forced : Нет

Текст #3
Идентификатор : 6
Формат : UTF-8
Идентификатор кодека : S_TEXT/UTF8
Идентификатор кодека/Информация : UTF-8 Plain Text
Заголовок : Украинские полные
Язык : Ukrainian
Default : Нет
Forced : Нет

Текст #4
Идентификатор : 7
Формат : UTF-8
Идентификатор кодека : S_TEXT/UTF8
Идентификатор кодека/Информация : UTF-8 Plain Text
Заголовок : Английские полные
Язык : English
Default : Нет
Forced : Нет

Меню
00:00:00.000 : en:00:00:00.000
00:03:12.275 : en:00:03:12.275
00:09:41.080 : en:00:09:41.080
00:12:26.329 : en:00:12:26.329
00:14:39.378 : en:00:14:39.378
00:17:47.191 : en:00:17:47.191
00:22:40.317 : en:00:22:40.317
00:23:25.696 : en:00:23:25.696
00:27:40.909 : en:00:27:40.909
00:30:16.898 : en:00:30:16.898
00:33:26.963 : en:00:33:26.963
00:35:45.894 : en:00:35:45.894
00:37:25.452 : en:00:37:25.452
00:39:00.547 : en:00:39:00.547
00:40:17.874 : en:00:40:17.874
00:43:46.374 : en:00:43:46.374
00:44:29.417 : en:00:44:29.417
00:46:53.144 : en:00:46:53.144
00:48:57.143 : en:00:48:57.143
00:50:42.414 : en:00:50:42.414
00:55:59.731 : en:00:55:59.731
00:57:26.693 : en:00:57:26.693
00:59:14.509 : en:00:59:14.509
01:01:24.639 : en:01:01:24.639
01:02:42.008 : en:01:02:42.008
01:04:58.269 : en:01:04:58.269





   Похожие торренты   Торрент   Размер 
В этой теме нет новых непрочитанных сообщений. Питер Пэн 2: Возвращение в Нетландию / Peter Pan in Return to Never Land (2002) DVDRip

170 | 8

698.31 МБ

В этой теме нет новых непрочитанных сообщений. Питер Пэн 2: Возвращение в Нетландию / Peter Pan in Return to Never Land (2002) HDRip 720p

257 | 5

2.95 ГБ

В этой теме нет новых непрочитанных сообщений. Питер Пэн / Peter Pan [Дилогия / Dilogy ] ( 1953 - 2002 ) BDRip 1080p от Freeisland

34 | 4

8.75 ГБ

В этой теме нет новых непрочитанных сообщений. Питер Пэн 2: Возвращение в Нетландию / Return to Never Land (2002) BDRip от HQCLUB

182 | 8

1.45 ГБ

В этой теме нет новых непрочитанных сообщений. Питер Пэн: Возвращение в Нетландию / Return to Never Land (2002) BDRip 720p от Leonardo and Scarabey | Лицензия

231 | 14

1.95 ГБ

В этой теме нет новых непрочитанных сообщений. Питер Пэн 2: Возвращение в Нетландию / Return to Never Land (2002) HDTV 1080i

3 | 4

11.3 ГБ

В этой теме нет новых непрочитанных сообщений. Питер Пэн / Peter Pan (1953) BDRip 1080p от R.G. HD-Films | 60 fps

86 | 9

6.05 ГБ




Вы не можете начинать темы
Вы не можете отвечать на сообщения
Вы не можете редактировать свои сообщения
Вы не можете удалять свои сообщения
Вы не можете добавлять вложения

Перейти:  
Для Мосгорсуда, Роскомнадзора и рекламодателей: mosgorsud-torrent[собачка]yandex.ru
 Вход
ppkBB3cker v.2 © 2008-2014 @ PPK
[ Time : 0.052s | 17 Queries | GZIP : Off ]

Торрент трекер RUTOR.IN, Не можете зайти на rutor.org? Какой новый адрес рутор? Какое зеркало рутор? Не работает rutor.org и зеркала? Тогда наш торрент специально для вас. Rutor.in неофициальное зеркало rutor. В случае если у Вас заблокирован rutor или вдруг Вы не можете на него зайти, то Вы без труда сможете скачать бесплатно и без рекламы последние новинки кино, игр, сериалов и прочего у нас, на Rutor.in. Не нужно использовать прокси, чтобы зайти на рутор, достаточно воспользоваться нашим ресурсом. Все новые фильмы, игры, сериалы, книги и музыка за 2013 и 2014 годы через торрент бесплатно. Скачивайте фильмы в хорошем качестве, игры для пк, xbox, playstation без регистрации. У нас вы найдете новые Зарубежные сериалы и Русские сериалы 2013, 2014, 2015 годов. Оставайтесь с нами, качайте любимые фильмы, игры, сериалы, книги и музыку.
cron