img image001 image001 image001 image001 image001 image001 image001 image001 image001 image001 image001 image001 image001 image001 image001

Planets Sun Sun Sun
Статистика раздачи
Автор: Снежана | Размер: 5.68 ГБ | Добавлен: 27 июл 2013
Раздают: 24    Качают: 3
Скачать торрент
Скачать торрент
Описание торрента

СообщениеДобавлено: 27 июл 2013 

#77


Шевели ластами! в 3Д / Sammy's Adventures: The Secret Passage / Sammy's avonturen: De geheime doorgang 3D
«Зелёный гражданин океана»


#77

Страна: Бельгия
Студия: BNP Paribas Fortis Film Fund, Illuminata Pictures, nWave Pictures, uFilm
Жанр: мультфильм, приключения
Продолжительность: 01:13:32
Год выпуска: 2010

Перевод: Профессиональный (дублированный) + украинский дубляж
Оригинальная аудиодорожка: нет
Русские субтитры: нет
Режиссёр: Бен Стассен / Ben Stassen
Роли озвучивали: Мелани Гриффит, Изабелль Фюрман, Юрий Ловенталь, Энтони Андерсон, Сидни Хоуп Баннер, Эд Бегли мл., Даррен Капоцци, Пэт Кэрролл, Крис Эндрю Кулла, Тим Карри
Роли дублировали: Максим Аверин, Тимур Родригез и др.

Описание:
Для маленькой черепашки подводный мир — самое безопасное место. Здесь акулы, пираньи, змеи, а на берегу поджидают люди. И наш маленький Сэмми хочет узнать весь мир, от полярных льдов до субтропиков. Путешествие продлится ровно полвека, начиная с 1959 года, за это время даже климат успеет измениться.

Качество: BDRip 1080p
Контейнер: MKV
Формат 3D: Half OverUnder / Вертикальная анаморфная стереопара
Порядок ракурсов: левый ракурс первый
Видео кодек: x264
Аудио кодек: AC3
Видео: AVC / High@L4.1 / 23,976 fps / 1920х1080p / 9584 Kbps / 0.193
Аудио 1: AC3 / 5.1 ch / 640 kbps / Русский дубляж BD RUS
Аудио 2: AC3 / 5.1 ch / 640 kbps / Украинский дубляж BD RUS
Субтитры: нет
Дополнительно: Сохранены оригинальные чаптеры как на Blu-ray
Рип от: Killbrain


Раздача от:








Проверено на оборудовании:
3D медиаплеер: iconBIT XDS73D
3D телевизор: 3D LED-Телевизор 40" Samsung UE40 ES6850M





x264 [info]: frame I:741 Avg QP:11.70 size:327620
x264 [info]: frame P:23597 Avg QP:16.45 size:108920
x264 [info]: frame B:81455 Avg QP:18.88 size: 31682

Общее
Уникальный идентификатор : 200032312684996840108977095605922972450 (0x967CD27421567446A18C26D435D24322)
Полное имя : F:Sammys.Adventures.The.Secret.Passage.3D.BDRip1080p.HalfOU(Killbrain).mkv
Формат : Matroska
Версия формата : Version 4 / Version 2
Размер файла : 5,68 Гбайт
Продолжительность : 1 ч. 13 м.
Общий поток : 11,1 Мбит/сек
Название фильма : Sammy's Adventures: The Secret Passage 3D (2010) by Killbrain
Дата кодирования : UTC 2010-02-22 21:41:31
Программа кодирования : mkvmerge v5.9.0 ('On The Loose') built on Dec 9 2012 15:37:01
Библиотека кодирования : libebml v1.3.0 + libmatroska v1.4.0

Видео
Идентификатор : 1
Формат : AVC
Формат/Информация : Advanced Video Codec
Профиль формата : High@L4.1
Параметр CABAC формата : Да
Параметр ReFrames формата : 4 кадра
Идентификатор кодека : V_MPEG4/ISO/AVC
Продолжительность : 1 ч. 13 м.
Битрейт : 9561 Кбит/сек
Ширина : 1920 пикселей
Высота : 1080 пикселей
Соотношение сторон : 16:9
Режим частоты кадров : Постоянный
Частота кадров : 23,976 кадра/сек
Цветовое пространство : YUV
Субдискретизация насыщенности : 4:2:0
Битовая глубина : 8 бит
Тип развёртки : Прогрессивная
Бит/(Пиксели*Кадры) : 0.192
Размер потока : 4,91 Гбайт (86%)
Заголовок : Sammy's Adventures: The Secret Passage 3D (2010)
Библиотека кодирования : x264 core 128 r2216 198a7ea
Настройки программы : cabac=1 / ref=4 / deblock=1:-3:-3 / analyse=0x3:0x113 / me=umh / subme=9 / psy=1 / psy_rd=1.00:0.15 / mixed_ref=1 / me_range=24 / chroma_me=1 / trellis=2 / 8x8dct=1 / cqm=0 / deadzone=21,11 / fast_pskip=1 / chroma_qp_offset=-3 / threads=3 / lookahead_threads=1 / sliced_threads=0 / slices=4 / nr=0 / decimate=1 / interlaced=0 / bluray_compat=0 / constrained_intra=0 / bframes=6 / b_pyramid=2 / b_adapt=2 / b_bias=0 / direct=3 / weightb=1 / open_gop=0 / weightp=2 / keyint=240 / keyint_min=23 / scenecut=40 / intra_refresh=0 / rc_lookahead=60 / rc=crf / mbtree=1 / crf=17.0 / qcomp=0.70 / qpmin=0 / qpmax=69 / qpstep=4 / vbv_maxrate=50000 / vbv_bufsize=50000 / crf_max=0.0 / nal_hrd=none / frame-packing=4 / ip_ratio=1.40 / aq=1:0.90
Язык : Russian
Default : Да
Forced : Нет

Аудио #1
Идентификатор : 2
Формат : AC-3
Формат/Информация : Audio Coding 3
Расширение режима : CM (complete main)
Параметр Endianness формата : Big
Идентификатор кодека : A_AC3
Продолжительность : 1 ч. 13 м.
Вид битрейта : Постоянный
Битрейт : 640 Кбит/сек
Каналы : 6 каналов
Расположение каналов : Front: L C R, Side: L R, LFE
Частота : 48,0 КГц
Битовая глубина : 16 бит
Метод сжатия : С потерями
Размер потока : 337 Мбайт (6%)
Заголовок : AC3 / 5.1 ch / 640 kbps / Русский дубляж BD RUS
Язык : Russian
Default : Да
Forced : Нет

Аудио #2
Идентификатор : 3
Формат : AC-3
Формат/Информация : Audio Coding 3
Расширение режима : CM (complete main)
Параметр Endianness формата : Big
Идентификатор кодека : A_AC3
Продолжительность : 1 ч. 13 м.
Вид битрейта : Постоянный
Битрейт : 640 Кбит/сек
Каналы : 6 каналов
Расположение каналов : Front: L C R, Side: L R, LFE
Частота : 48,0 КГц
Битовая глубина : 16 бит
Метод сжатия : С потерями
Размер потока : 337 Мбайт (6%)
Заголовок : AC3 / 5.1 ch / 640 kbps / Украинский дубляж BD RUS
Язык : Ukrainian
Default : Нет
Forced : Нет

Меню
00:00:00.000 : :Chapter 01
00:05:41.674 : :Chapter 02
00:10:11.944 : :Chapter 03
00:15:24.840 : :Chapter 04
00:19:53.859 : :Chapter 05
00:24:02.232 : :Chapter 06
00:30:18.358 : :Chapter 07
00:38:58.461 : :Chapter 08
00:43:26.687 : :Chapter 09
00:46:20.819 : :Chapter 10
00:53:00.886 : :Chapter 11
00:58:38.473 : :Chapter 12








   Похожие торренты   Торрент   Размер 
В этой теме нет новых непрочитанных сообщений. Шевели ластами! / Sammy's Adventures: The Secret Passage (2010) BDRip 1080p от NNNB

70 | 18

5.52 ГБ

В этой теме нет новых непрочитанных сообщений. Шевели ластами! / Sammy's avonturen: De geheime doorgang (2010) BDRip 1080p

16 | 4

3.04 ГБ

В этой теме нет новых непрочитанных сообщений. Шевели ластами! / Sammy's avonturen: De geheime doorgang (2010) BDRip-AVC 1080p от FREEISLAND

3 | 4

4.37 ГБ

В этой теме нет новых непрочитанных сообщений. Шевели ластами! / Sammy's Avonturen. De Geheime Doorgang (2010) BDRip | D | Полная версия

50 | 3

745.26 МБ

В этой теме нет новых непрочитанных сообщений. Шевели ластами ! / Sammy's avonturen: De geheime doorgang (2010) BDRip 720p от FREEISLAND

241 | 9

2.18 ГБ

В этой теме нет новых непрочитанных сообщений. Шевели ластами! / Sammy's avonturen: De geheime doorgang (2010) DVDRip - AVC

4 | 2

1 ГБ

В этой теме нет новых непрочитанных сообщений. Шевели ластами! / Sammy's avonturen: De geheime doorgang (2010) BDRip 1080р | Полная версия

77 | 6

4.37 ГБ




Вы не можете начинать темы
Вы не можете отвечать на сообщения
Вы не можете редактировать свои сообщения
Вы не можете удалять свои сообщения
Вы не можете добавлять вложения

Перейти:  
Для Мосгорсуда, Роскомнадзора и рекламодателей: mosgorsud-torrent[собачка]yandex.ru
 Вход
ppkBB3cker v.2 © 2008-2014 @ PPK
[ Time : 0.030s | 14 Queries | GZIP : Off ]

Торрент трекер RUTOR.IN, Не можете зайти на rutor.org? Какой новый адрес рутор? Какое зеркало рутор? Не работает rutor.org и зеркала? Тогда наш торрент специально для вас. Rutor.in неофициальное зеркало rutor. В случае если у Вас заблокирован rutor или вдруг Вы не можете на него зайти, то Вы без труда сможете скачать бесплатно и без рекламы последние новинки кино, игр, сериалов и прочего у нас, на Rutor.in. Не нужно использовать прокси, чтобы зайти на рутор, достаточно воспользоваться нашим ресурсом. Все новые фильмы, игры, сериалы, книги и музыка за 2013 и 2014 годы через торрент бесплатно. Скачивайте фильмы в хорошем качестве, игры для пк, xbox, playstation без регистрации. У нас вы найдете новые Зарубежные сериалы и Русские сериалы 2013, 2014, 2015 годов. Оставайтесь с нами, качайте любимые фильмы, игры, сериалы, книги и музыку.