img image001 image001 image001 image001 image001 image001 image001 image001 image001 image001 image001 image001 image001 image001 image001

Planets Sun Sun Sun
Статистика раздачи
Автор: Снежана | Размер: 1.46 ГБ | Добавлен: 27 июл 2013
Раздают: 35    Качают: 5
Скачать торрент
Скачать торрент
Описание торрента

СообщениеДобавлено: 27 июл 2013 

#77
Страна: США
Год выпуска: 1963
Студия: Walt Disney Productions

Жанр: мелодрама, комедия
Продолжительность: 01:16:19

Перевод: Профессиональный (дублированный) + Авторский Михалев
Оригинальная аудиодорожка: нет
Cубтитры: нет

Режиссер: Вольфганг Райтерман / Wolfgang Reitherman

Роли озвучивали: Себастьян Сабот, Рикки Соренсен, Карл Свенсон, Джуниос Мэтьюз, Джинни Тайлер, Марта Вентуорф, Норман Элден, Алан Напье, Ричард Рейтерман, Роберт Рейтерман...

Роли дублировали: Александр Клюквин, Томас Шлеккер, Александр Леньков, Алексей Колган, Людмила Гнилова...

Описание:
В стародавние времена в центре Лондона появился громадный камень с замурованным в нем старинным мечом. Золотая надпись на мече гласила, что королем Англии станет тот, кто вытащит этот заколдованный меч, доказав тем самым свою особую силу и право на власть. Пока это не удавалось никому.
А между тем в далекой лесной глуши жил себе 11-летний мальчик Артур, прислуживал в замке и даже не подозревал, что именно ему предначертано в будущем стать великом королем. Но это предвидел живший неподалеку волшебник Мерлин. Он и его ученый филин Архимед стали наставниками парнишки, подвергнув своего юного воспитанника всевозможным испытаниям.
Его поочередно превращали в животных трех разных стихий — рыбу, белку и птицу, чтобы мог он познать правду жизни во всех ее проявлениях и понять, что не в мышцах, а в мудрости и знании и есть настоящая сила человека...





Исходник: HDTV 720p
Тип релиза: HDTVRip
Контейнер: AVI

Видео: 704х528 (4:3), 25 fps, XviD ~ 2079 kbps avg, 0.224 bit/pixel
Аудио: 48 kHz, AC3, 2 ch, 192.00 kbps дубляж
Аудио: 48 kHz, AC3, 6 ch, 448.00 kbps Михалев

Раздача от:
Общее
Полное имя : Mech.v.kamne.1963.D.HDTVRip_[Youtracker]_by_AVP Studio.avi
Формат : AVI
Формат/Информация : Audio Video Interleave
Размер файла : 1,46 Гбайт
Продолжительность : 1 ч. 16 м.
Общий поток : 2734 Кбит/сек
Программа кодирования : VirtualDubModRus 1.5.10.2 (build 2542/release)
Библиотека кодирования : VirtualDubMod build 2542/release

Видео
Идентификатор : 0
Формат : MPEG-4 Visual
Профиль формата : Advanced Simple@L5
Параметр BVOP формата : 1
Параметр QPel формата : Нет
Параметр GMC формата : Без точки перехода
Параметр матрицы формата : Выборочная
Идентификатор кодека : XVID
Идентификатор кодека/Подсказка : XviD
Продолжительность : 1 ч. 16 м.
Битрейт : 2079 Кбит/сек
Ширина : 704 пикселя
Высота : 528 пикселей
Соотношение сторон : 4:3
Частота кадров : 25,000 кадров/сек
Цветовое пространство : YUV
Субдискретизация насыщенности : 4:2:0
Битовая глубина : 8 бит
Тип развёртки : Прогрессивная
Метод сжатия : С потерями
Бит/(Пиксели*Кадры) : 0.224
Размер потока : 1,11 Гбайт (76%)
Библиотека кодирования : XviD 65

Аудио #1
Идентификатор : 1
Формат : AC-3
Формат/Информация : Audio Coding 3
Расширение режима : CM (complete main)
Идентификатор кодека : 2000
Продолжительность : 1 ч. 16 м.
Вид битрейта : Постоянный
Битрейт : 192 Кбит/сек
Каналы : 2 канала
Расположение каналов : Front: L R
Частота : 48,0 КГц
Битовая глубина : 16 бит
Метод сжатия : С потерями
Размер потока : 105 Мбайт (7%)
Выравнивание : Разделение по промежуткам
Продолжительность промежутка : 40 мс. (1,00 видеокадр)
Время предзагрузки промежутка : 500 мс.

Аудио #2
Идентификатор : 2
Формат : AC-3
Формат/Информация : Audio Coding 3
Расширение режима : CM (complete main)
Идентификатор кодека : 2000
Продолжительность : 1 ч. 16 м.
Вид битрейта : Постоянный
Битрейт : 448 Кбит/сек
Каналы : 6 каналов
Расположение каналов : Front: L C R, Side: L R, LFE
Частота : 48,0 КГц
Битовая глубина : 16 бит
Метод сжатия : С потерями
Размер потока : 244 Мбайт (16%)
Выравнивание : Разделение по промежуткам
Продолжительность промежутка : 40 мс. (1,00 видеокадр)
Время предзагрузки промежутка : 500 мс





   Похожие торренты   Торрент   Размер 
В этой теме нет новых непрочитанных сообщений. Меч в камне / The Sword in the Stone (1963) HDTVRip от Youtracker | D

30 | 3

744.88 МБ

В этой теме нет новых непрочитанных сообщений. Меч в камне / The Sword in the Stone (1963) HDTVRip-AVC от Youtracker | D, P

17 | 2

1.46 ГБ

В этой теме нет новых непрочитанных сообщений. Меч в камне / The Sword In The Stone (1963) HDTVRip 720p

13 | 4

2.05 ГБ

В этой теме нет новых непрочитанных сообщений. Меч в камне / The Sword in the Stone (1963) HDTVRip от HQ-ViDEO

132 | 10

1.46 ГБ

В этой теме нет новых непрочитанных сообщений. Меч в камне / The Sword in the Stone (1963) DVDRip

16 | 3

2.19 ГБ

В этой теме нет новых непрочитанных сообщений. Меч в камне / The Sword In The Stone (1963) BDRip-AVC от MediaClub | D, P, A

67 | 9

2.92 ГБ

В этой теме нет новых непрочитанных сообщений. Меч в камне / The Sword in the Stone (1963) BDRip-AVC | iPad | D

91 | 17

1.69 ГБ




Вы не можете начинать темы
Вы не можете отвечать на сообщения
Вы не можете редактировать свои сообщения
Вы не можете удалять свои сообщения
Вы не можете добавлять вложения

Перейти:  
Для Мосгорсуда, Роскомнадзора и рекламодателей: mosgorsud-torrent[собачка]yandex.ru
 Вход
ppkBB3cker v.2 © 2008-2014 @ PPK
[ Time : 0.070s | 15 Queries | GZIP : Off ]

Торрент трекер RUTOR.IN, Не можете зайти на rutor.org? Какой новый адрес рутор? Какое зеркало рутор? Не работает rutor.org и зеркала? Тогда наш торрент специально для вас. Rutor.in неофициальное зеркало rutor. В случае если у Вас заблокирован rutor или вдруг Вы не можете на него зайти, то Вы без труда сможете скачать бесплатно и без рекламы последние новинки кино, игр, сериалов и прочего у нас, на Rutor.in. Не нужно использовать прокси, чтобы зайти на рутор, достаточно воспользоваться нашим ресурсом. Все новые фильмы, игры, сериалы, книги и музыка за 2013 и 2014 годы через торрент бесплатно. Скачивайте фильмы в хорошем качестве, игры для пк, xbox, playstation без регистрации. У нас вы найдете новые Зарубежные сериалы и Русские сериалы 2013, 2014, 2015 годов. Оставайтесь с нами, качайте любимые фильмы, игры, сериалы, книги и музыку.
cron