img image001 image001 image001 image001 image001 image001 image001 image001 image001 image001 image001 image001 image001 image001 image001

Planets Sun Sun Sun
Статистика раздачи
Автор: Снежана | Размер: 4.37 ГБ | Добавлен: 27 июл 2013
Раздают: 91    Качают: 7
Скачать торрент
Скачать торрент
Описание торрента

СообщениеДобавлено: 27 июл 2013 

#77

Информация о фильме
Название: Феи: Тайна зимнего леса
Оригинальное название: Secret of the Wings
Год выхода: 2012
Жанр: мультфильм, фэнтези, семейный
Режиссер: Роберт Ганнавей, Пегги Холмс
В ролях: Тимоти Далтон, Люси Хейл, Меган Хилти, Анжелика Хьюстон, Мэтт Лантер, Джесси МакКартни, Мэй Уитман, Люси Лью, Рэйвен, Дебби Райан...

О фильме:
Динь-Динь и ее подруги всегда боялись пересекать границу с Зимним лесом, ведь существует поверье, что там очень опасно. В один прекрасный день Динь-Динь, сгорая от любопытства, подходит вплотную к лесу, и ее крылья неожиданно начинают блестеть и переливаться. Завороженная Динь, желая узнать тайну волшебных крыльев, кутается в теплое пальто и отправляется в глубь таинственного леса, где ее ждет неожиданное открытие…



Страна: США
Продолжительность: 01:15:04
Перевод: Дубляж

Файл
Кодек: H264
Качество: BDRip 1080p
Видео: 1920x1080, 7687 Kbps, 23,976 fps
Звук: 48 kHz, AC3, 6c, 640 kbps
Субтитры: Русские, английские

Семпл



Общее
Уникальный идентификатор : 217220180565144694407578893517850909515 (0xA36B15C45DC3AA639001D8929C039B4B)
Формат : Matroska
Версия формата : Version 4 / Version 2
Размер файла : 4,37 Гбайт
Продолжительность : 1 ч. 15 м.
Общий поток : 8331 Кбит/сек
Название фильма : Secret of the Wings (2012) BDRip 1080p от Dimok
Дата кодирования : UTC 2010-02-22 21:41:31
Программа кодирования : mkvmerge v5.9.0 ('On The Loose') built on Dec 9 2012 15:37:01
Библиотека кодирования : libebml v1.3.0 + libmatroska v1.4.0

Видео
Идентификатор : 1
Формат : AVC
Формат/Информация : Advanced Video Codec
Профиль формата : High@L4.1
Параметр CABAC формата : Да
Параметр ReFrames формата : 4 кадра
Идентификатор кодека : V_MPEG4/ISO/AVC
Продолжительность : 1 ч. 15 м.
Битрейт : 7687 Кбит/сек
Ширина : 1920 пикселей
Высота : 1080 пикселей
Соотношение сторон : 16:9
Режим частоты кадров : Постоянный
Частота кадров : 23,976 кадра/сек
Цветовое пространство : YUV
Субдискретизация насыщенности : 4:2:0
Битовая глубина : 8 бит
Тип развёртки : Прогрессивная
Бит/(Пиксели*Кадры) : 0.155
Размер потока : 3,95 Гбайт (90%)
Библиотека кодирования : x264 core 129 r2230 1cffe9f
Настройки программы : cabac=1 / ref=4 / deblock=1:0:0 / analyse=0x3:0x133 / me=umh / subme=10 / psy=1 / psy_rd=1.00:0.10 / mixed_ref=1 / me_range=32 / chroma_me=1 / trellis=2 / 8x8dct=1 / cqm=0 / deadzone=21,11 / fast_pskip=0 / chroma_qp_offset=-3 / threads=6 / lookahead_threads=1 / sliced_threads=0 / nr=0 / decimate=1 / interlaced=0 / bluray_compat=0 / constrained_intra=0 / bframes=3 / b_pyramid=2 / b_adapt=2 / b_bias=0 / direct=3 / weightb=1 / open_gop=0 / weightp=2 / keyint=240 / keyint_min=23 / scenecut=40 / intra_refresh=0 / rc_lookahead=66 / rc=2pass / mbtree=1 / bitrate=7687 / ratetol=1.0 / qcomp=0.62 / qpmin=0 / qpmax=69 / qpstep=4 / cplxblur=20.0 / qblur=0.5 / ip_ratio=1.40 / aq=1:1.00
Default : Да
Forced : Нет

Аудио
Идентификатор : 2
Формат : AC-3
Формат/Информация : Audio Coding 3
Расширение режима : CM (complete main)
Параметр Endianness формата : Big
Идентификатор кодека : A_AC3
Продолжительность : 1 ч. 15 м.
Вид битрейта : Постоянный
Битрейт : 640 Кбит/сек
Каналы : 6 каналов
Расположение каналов : Front: L C R, Side: L R, LFE
Частота : 48,0 КГц
Битовая глубина : 16 бит
Метод сжатия : С потерями
Размер потока : 344 Мбайт (8%)
Заголовок : Дубляж
Язык : Russian
Default : Да
Forced : Нет

Текст #1
Идентификатор : 3
Формат : UTF-8
Идентификатор кодека : S_TEXT/UTF8
Идентификатор кодека/Информация : UTF-8 Plain Text
Язык : Russian
Default : Да
Forced : Нет

Текст #2
Идентификатор : 4
Формат : UTF-8
Идентификатор кодека : S_TEXT/UTF8
Идентификатор кодека/Информация : UTF-8 Plain Text
Язык : English
Default : Нет
Forced : Нет

Меню
00:00:00.000 : :Chapter 1
00:05:20.554 : :Chapter 2
00:10:30.540 : :Chapter 3
00:15:36.351 : :Chapter 4
00:20:40.654 : :Chapter 5
00:25:57.457 : :Chapter 6
00:30:31.521 : :Chapter 7
00:35:50.963 : :Chapter 8
00:40:45.258 : :Chapter 9
00:45:24.658 : :Chapter 10
00:50:05.325 : :Chapter 11
00:55:42.265 : :Chapter 12
01:00:24.312 : :Chapter 13
01:05:12.456 : :Chapter 14
01:10:52.954 : :Chapter 15
01:15:27.522 : :Chapter 16



   Похожие торренты   Торрент   Размер 
В этой теме нет новых непрочитанных сообщений. Феи: Тайна зимнего леса / Secret of the Wings (2012) BDRip 1080p | 3D-Video | L

5 | 4

6.68 ГБ

В этой теме нет новых непрочитанных сообщений. Феи: Тайна зимнего леса / Secret of the Wings (2012) BDRip 1080p от Youtracker | 3D-Video

40 | 2

6.81 ГБ

В этой теме нет новых непрочитанных сообщений. Феи: Тайна зимнего леса / Secret of the Wings (2012) BDRip 1080p от Youtracker | Лицензия

82 | 13

6.97 ГБ

В этой теме нет новых непрочитанных сообщений. Феи: Тайна зимнего леса / Secret of the Wings (2012) Blu-ray 1080p от Youtracker и HDCLUB | лицензия

1 | 2

26.6 ГБ

В этой теме нет новых непрочитанных сообщений. Феи: Тайна зимнего леса / Secret of the Wings (2012) BDRip от HQCLUB | Лицензия

1477 | 47

1.45 ГБ

В этой теме нет новых непрочитанных сообщений. Феи: Тайна зимнего леса / Secret of the Wings (2012) BDRip 1080р от FREEISLAND | L

5 | 8

4.36 ГБ

В этой теме нет новых непрочитанных сообщений. Феи: Тайна зимнего леса / Secret of the Wings (2012) BDRip 720p от Leonardo and Scarabey | Лицензия

351 | 69

2.43 ГБ




Вы не можете начинать темы
Вы не можете отвечать на сообщения
Вы не можете редактировать свои сообщения
Вы не можете удалять свои сообщения
Вы не можете добавлять вложения

Перейти:  
Для Мосгорсуда, Роскомнадзора и рекламодателей: mosgorsud-torrent[собачка]yandex.ru
 Вход
ppkBB3cker v.2 © 2008-2014 @ PPK
[ Time : 0.032s | 15 Queries | GZIP : Off ]

Торрент трекер RUTOR.IN, Не можете зайти на rutor.org? Какой новый адрес рутор? Какое зеркало рутор? Не работает rutor.org и зеркала? Тогда наш торрент специально для вас. Rutor.in неофициальное зеркало rutor. В случае если у Вас заблокирован rutor или вдруг Вы не можете на него зайти, то Вы без труда сможете скачать бесплатно и без рекламы последние новинки кино, игр, сериалов и прочего у нас, на Rutor.in. Не нужно использовать прокси, чтобы зайти на рутор, достаточно воспользоваться нашим ресурсом. Все новые фильмы, игры, сериалы, книги и музыка за 2013 и 2014 годы через торрент бесплатно. Скачивайте фильмы в хорошем качестве, игры для пк, xbox, playstation без регистрации. У нас вы найдете новые Зарубежные сериалы и Русские сериалы 2013, 2014, 2015 годов. Оставайтесь с нами, качайте любимые фильмы, игры, сериалы, книги и музыку.
cron