img image001 image001 image001 image001 image001 image001 image001 image001 image001 image001 image001 image001 image001 image001 image001

Planets Sun Sun Sun
Статистика раздачи
Автор: Снежана | Размер: 743.17 МБ | Добавлен: 27 июл 2013
Раздают: 17    Качают: 5
Скачать торрент
Скачать торрент
Описание торрента

СообщениеДобавлено: 27 июл 2013 

#77
Название: Принцесса солнца
Оригинальное название: La Reine soleil
Год выхода: 2007
Страна: Бельгия, Франция, Венгрия
Студия: Belokan Productions, Rezo Productions
Дистрибьютор: Парадиз
Жанр: Мультфильм
Продолжительность: 01:13:46
Перевод: Профессиональный (полное дублирование)
Субтиры: нет

Режиссер: Филипп Леклерк / Philippe Leclerc

Описание: Ничего не препятствует молодой принцессе управлять народом Египта, но она решает найти свою мать Нифертити при помощи молодого незнакомца Тута. Она еще не знает, через что она должна пройти. Преследуемые врагами, которых послал Фараон, двое подростков противостоят тысячи опасностям на своем пути!

Сэмпл: http://multi-up.com/811249

Качество: DVDRip
Формат: AVI
Видео: 656x352 (1.85:1), 25 fps, XviD build 64 ~1270 kbps avg, 0.22 bit/pixel
Аудио: 48 kHz, MPEG Layer 3, 2 ch, ~128.00 kbps avg

D:Принцесса солнца DVDRip. [by dexter lex].avi
General
Complete name : D:Принцесса солнца DVDRip. [by dexter lex].avi
Format : AVI
Format/Info : Audio Video Interleave
File size : 743 MiB
Duration : 1h 13mn
Overall bit rate : 1 408 Kbps
Writing application : VirtualDubMod 1.5.10.3 | www.virtualdub-fr.org || (build 2550/release)
Writing library : VirtualDubMod build 2550/release
Video #0
ID : 0
Format : MPEG-4 Visual
Format profile : Advanced Simple@L5
Format settings, BVOP : 1
Format settings, QPel : No
Format settings, GMC : No warppoints
Format settings, Matrix : Custom
Codec ID : XVID
Codec ID/Hint : XviD
Duration : 1h 13mn
Bit rate : 1 271 Kbps
Width : 656 pixels
Height : 352 pixels
Display aspect ratio : 1.85:1
Frame rate : 25.000 fps
Color space : YUV
Chroma subsampling : 4:2:0
Bit depth : 8 bits
Scan type : Progressive
Compression mode : Lossy
Bits/(Pixel*Frame) : 0.220
Stream size : 671 MiB (90%)
Writing library : XviD 64
Audio #1
ID : 1
Format : MPEG Audio
Format version : Version 1
Format profile : Layer 3
Codec ID : 55
Codec ID/Hint : MP3
Duration : 1h 13mn
Bit rate mode : Constant
Bit rate : 128 Kbps
Channel(s) : 2 channels
Sampling rate : 48.0 KHz
Compression mode : Lossy
Stream size : 67.5 MiB (9%)
Alignment : Aligned on interleaves
Interleave, duration : 40 ms (1.00 video frame)
Interleave, preload duration : 504 ms
Writing library : LAME3.99r
Encoding settings : -m s -V 4 -q 2 -lowpass 17 -b 128


Релиз от:



   Похожие торренты   Торрент   Размер 
В этой теме нет новых непрочитанных сообщений. Принцесса солнца / La Reine soleil (2007) DVD5 от Youtracker | D | Лицензия

1 | 7

4.16 ГБ

В этой теме нет новых непрочитанных сообщений. Дети солнца / Les enfants du soleil (2004) DVDRip от Files-x

0 | 2

2.05 ГБ

В этой теме нет новых непрочитанных сообщений. Цирковое шоу - Цирк солнца [10 шоу] / Cirque du Soleil (1992-2008) DVDRip

17 | 21

19.73 ГБ

В этой теме нет новых непрочитанных сообщений. Немного солнца в холодной воде / Un peu de soleil dans l'eau froide (1971) DVDRip | P

59 | 9

1.44 ГБ

В этой теме нет новых непрочитанных сообщений. Немного солнца в холодной воде / Un peu de soleil dans l'eau froide (1971) DVDRip | P

169 | 16

1.46 ГБ

В этой теме нет новых непрочитанных сообщений. Цирк солнца: Путешествие Человека 3D / Cirque du Soleil: Journey of Man 3D [Анаглиф] (2000) DVDRip от Zona-X

0 | 5

634.87 МБ

В этой теме нет новых непрочитанных сообщений. Эстебан, сын Солнца / Les Mysterieuses Cites d'or / Taiyo no Ko Esteban / Esteban le fils du Soleil [39 из 39] (1982-1983) DVDRip

2 | 5

14.37 ГБ




Вы не можете начинать темы
Вы не можете отвечать на сообщения
Вы не можете редактировать свои сообщения
Вы не можете удалять свои сообщения
Вы не можете добавлять вложения

Перейти:  
Для Мосгорсуда, Роскомнадзора и рекламодателей: mosgorsud-torrent[собачка]yandex.ru
 Вход
ppkBB3cker v.2 © 2008-2014 @ PPK
[ Time : 0.027s | 14 Queries | GZIP : Off ]

Торрент трекер RUTOR.IN, Не можете зайти на rutor.org? Какой новый адрес рутор? Какое зеркало рутор? Не работает rutor.org и зеркала? Тогда наш торрент специально для вас. Rutor.in неофициальное зеркало rutor. В случае если у Вас заблокирован rutor или вдруг Вы не можете на него зайти, то Вы без труда сможете скачать бесплатно и без рекламы последние новинки кино, игр, сериалов и прочего у нас, на Rutor.in. Не нужно использовать прокси, чтобы зайти на рутор, достаточно воспользоваться нашим ресурсом. Все новые фильмы, игры, сериалы, книги и музыка за 2013 и 2014 годы через торрент бесплатно. Скачивайте фильмы в хорошем качестве, игры для пк, xbox, playstation без регистрации. У нас вы найдете новые Зарубежные сериалы и Русские сериалы 2013, 2014, 2015 годов. Оставайтесь с нами, качайте любимые фильмы, игры, сериалы, книги и музыку.