img image001 image001 image001 image001 image001 image001 image001 image001 image001 image001 image001 image001 image001 image001 image001

Planets Sun Sun Sun
Статистика раздачи
Автор: Снежана | Размер: 7.77 ГБ | Добавлен: 27 июл 2013
Раздают: 195    Качают: 8
Скачать торрент
Скачать торрент
Описание торрента

СообщениеДобавлено: 27 июл 2013 

Winx Club: Волшебное приключение в 3Д / Winx Club 3D: Magic Adventure
«The magic is Back!»


#77

Страна: Италия
Студия: Rainbow
Жанр: мультфильм
Год выпуска: 2010
Продолжительность: 01:27:22

Перевод: Профессиональный (дублированный) [Лицензия]
Оригинальная аудиодорожка: нет
Русские субтитры: нет
Режиссёр: Иджинио Страффи / Iginio Straffi
Роли озвучивали: Лариса Некипелова, Яна Белоновская, Екатерина Семенова, Рамиля Искандер, Денис Беспалый

Описание:
Для Блум нелегко быть принцессой планеты Домино, а тем более королевой! Ей нужно принимать сложные решения, решать вопросы, и 2 пары родителей всегда поддерживают ее. Сможет ли Блум устоять перед соблазном принять титул королевы или же скромность заставит ее отказаться?.. Какое решение не примет Блум, она всегда может рассчитывать на поддержку, родных, Ская и клуба Винкс. Скай делает Блум предложение руки и сердца, но отец принца запрещает брак, открывая Блум темную тайну. Феи из клуба Винкс с помощью специалистов смогут преодолеть все преграды и спасти королевство Ская.

Качество: BDRip 1080p
Контейнер: MKV
Формат 3D: Half OverUnder / Вертикальная анаморфная стереопара
Порядок ракурсов: левый ракурс первый
Видео кодек: x264
Аудио кодек: AC3
Видео: AVC / High@L4.1 / crf 17.0 / 23,976 fps / 1920x1080p / 11,8 Mbps / 0.238
Аудио: AC3 / 5.1 ch / 640 kbps / 16 bit / Русский дубляж BD RUS
Субтитры: нет
Дополнительно: Сохранены оригинальные чаптеры как на Blu-ray
Рип от: Killbrain


Раздача от:








Проверено на оборудовании:
3D медиаплеер: iconBIT XDS73D
3D телевизор: 3D LED-Телевизор 40" Samsung UE40 ES6850M





x264 [info]: frame I:1211 Avg QP: 11.83 size:540406
x264 [info]: frame P:35854 Avg QP:16.26 size:116442
x264 [info]: frame B:101488 Avg QP:19.05 size: 22175

Общее
Уникальный идентификатор : 231720766500315611122403141762471753129 (0xAE53CBD9EB4C298098A62601E2C8F5A9)
Полное имя : F:Скачка торрентWinx.Club.Magic.Adventure.2010.3D.BDRip1080p.HalfOU(Killbrain).mkv
Формат : Matroska
Версия формата : Version 2
Размер файла : 7,77 Гбайт
Продолжительность : 1 ч. 27 м.
Общий поток : 12,7 Мбит/сек
Название фильма : Winx Club. Magic Adventure 3D (2010) by Killbrain
Дата кодирования : UTC 2012-10-09 20:48:24
Программа кодирования : mkvmerge v5.8.0 ('No Sleep / Pillow') built on Sep 2 2012 15:37:04
Библиотека кодирования : libebml v1.2.3 + libmatroska v1.3.0

Видео
Идентификатор : 1
Формат : AVC
Формат/Информация : Advanced Video Codec
Профиль формата : High@L4.1
Параметр CABAC формата : Да
Параметр ReFrames формата : 4 кадра
Идентификатор кодека : V_MPEG4/ISO/AVC
Продолжительность : 1 ч. 27 м.
Битрейт : 11,8 Мбит/сек
Ширина : 1920 пикселей
Высота : 1080 пикселей
Соотношение сторон : 16:9
Режим частоты кадров : Постоянный
Частота кадров : 23,976 кадра/сек
Цветовое пространство : YUV
Субдискретизация насыщенности : 4:2:0
Битовая глубина : 8 бит
Тип развёртки : Прогрессивная
Бит/(Пиксели*Кадры) : 0.238
Размер потока : 7,23 Гбайт (93%)
Заголовок : Winx Club. Magic Adventure 3D (2010)
Библиотека кодирования : x264 core 128 r2216 198a7ea
Настройки программы : cabac=1 / ref=4 / deblock=1:-3:-3 / analyse=0x3:0x113 / me=umh / subme=9 / psy=1 / psy_rd=1.00:0.15 / mixed_ref=1 / me_range=16 / chroma_me=1 / trellis=2 / 8x8dct=1 / cqm=0 / deadzone=21,11 / fast_pskip=1 / chroma_qp_offset=-3 / threads=3 / lookahead_threads=1 / sliced_threads=0 / slices=4 / nr=0 / decimate=1 / interlaced=0 / bluray_compat=0 / constrained_intra=0 / bframes=6 / b_pyramid=2 / b_adapt=2 / b_bias=0 / direct=3 / weightb=1 / open_gop=0 / weightp=2 / keyint=240 / keyint_min=23 / scenecut=40 / intra_refresh=0 / rc_lookahead=60 / rc=crf / mbtree=1 / crf=17.0 / qcomp=0.70 / qpmin=0 / qpmax=69 / qpstep=4 / vbv_maxrate=40000 / vbv_bufsize=40000 / crf_max=0.0 / nal_hrd=none / frame-packing=4 / ip_ratio=1.40 / aq=1:0.70
Язык : Italian
Default : Да
Forced : Нет

Аудио
Идентификатор : 2
Формат : AC-3
Формат/Информация : Audio Coding 3
Расширение режима : CM (complete main)
Параметр Endianness формата : Big
Идентификатор кодека : A_AC3
Продолжительность : 1 ч. 27 м.
Вид битрейта : Постоянный
Битрейт : 640 Кбит/сек
Каналы : 6 каналов
Расположение каналов : Front: L C R, Side: L R, LFE
Частота : 48,0 КГц
Битовая глубина : 16 бит
Метод сжатия : С потерями
Размер потока : 400 Мбайт (5%)
Заголовок : AC3 / 5.1 ch / 640 kbps / 16 bit / Русский дубляж BD
Язык : Russian
Default : Да
Forced : Нет

Меню
00:00:00.000 : :Chapter 01
00:08:07.403 : :Chapter 02
00:15:23.964 : :Chapter 03
00:20:52.668 : :Chapter 04
00:27:49.542 : :Chapter 05
00:34:50.004 : :Chapter 06
00:41:41.540 : :Chapter 07
00:48:33.827 : :Chapter 08
00:57:08.883 : :Chapter 09
01:06:53.300 : :Chapter 10
01:15:14.593 : :Chapter 11
01:23:35.051 : :Chapter 12








   Похожие торренты   Торрент   Размер 
В этой теме нет новых непрочитанных сообщений. Winx Club. Волшебное приключение / WINX Club. Magical Adventure (2010) BDRip 720p от Freeisland

38 | 4

4.37 ГБ

В этой теме нет новых непрочитанных сообщений. Winx Club. Волшебное приключение / WINX Club. Magical Adventure (2010) HDRip от Generalfilm

12 | 3

702.24 МБ

В этой теме нет новых непрочитанных сообщений. Winx Club: Волшебное приключение / WINX Club: Magical Adventure (2010) DVDRip

165 | 11

1.37 ГБ

В этой теме нет новых непрочитанных сообщений. Winx Club: Волшебное приключение / Winx Club: Magical Adventure (2010) HDRip

13 | 4

1.36 ГБ

В этой теме нет новых непрочитанных сообщений. Клуб Винкс. Волшебное приключение / WINX Club. Magical Adventure (2010) DVD5 от Youtracker | D

59 | 14

3.99 ГБ

В этой теме нет новых непрочитанных сообщений. Winx studio. Winx club (2009) PC

60 | 7

131.42 МБ

В этой теме нет новых непрочитанных сообщений. Клуб Винкс. Школа волшебниц / WinX Club [S01-04x001-104] (2003-2010) 28xDVD5 от Youtracker | D

28 | 89

100.42 ГБ




Вы не можете начинать темы
Вы не можете отвечать на сообщения
Вы не можете редактировать свои сообщения
Вы не можете удалять свои сообщения
Вы не можете добавлять вложения

Перейти:  
Для Мосгорсуда, Роскомнадзора и рекламодателей: mosgorsud-torrent[собачка]yandex.ru
 Вход
ppkBB3cker v.2 © 2008-2014 @ PPK
[ Time : 0.027s | 14 Queries | GZIP : Off ]
CGP output time : 0.035s | 5 Queries | GZIP : Off

Торрент трекер RUTOR.IN, Не можете зайти на rutor.org? Какой новый адрес рутор? Какое зеркало рутор? Не работает rutor.org и зеркала? Тогда наш торрент специально для вас. Rutor.in неофициальное зеркало rutor. В случае если у Вас заблокирован rutor или вдруг Вы не можете на него зайти, то Вы без труда сможете скачать бесплатно и без рекламы последние новинки кино, игр, сериалов и прочего у нас, на Rutor.in. Не нужно использовать прокси, чтобы зайти на рутор, достаточно воспользоваться нашим ресурсом. Все новые фильмы, игры, сериалы, книги и музыка за 2013 и 2014 годы через торрент бесплатно. Скачивайте фильмы в хорошем качестве, игры для пк, xbox, playstation без регистрации. У нас вы найдете новые Зарубежные сериалы и Русские сериалы 2013, 2014, 2015 годов. Оставайтесь с нами, качайте любимые фильмы, игры, сериалы, книги и музыку.