img image001 image001 image001 image001 image001 image001 image001 image001 image001 image001 image001 image001 image001 image001 image001

Planets Sun Sun Sun
Статистика раздачи
Автор: Снежана | Размер: 1.16 ГБ | Добавлен: 27 июл 2013
Раздают: 630    Качают: 14
Скачать торрент
Скачать торрент
Описание торрента

СообщениеДобавлено: 27 июл 2013 

#77

Информация о фильме
Название: Турнир Долины Фей
Оригинальное название: Pixie Hollow Games
Год выхода: 2011
Жанр: короткометражный, мультфильм, фэнтези, приключения
Режиссер: Брэдли Рэймонд
В ролях: Люси Лью, Мэй Уитман, Анжелика Хьюстон, Бренда Сонг, Памела Адлон, Рэйвен, Дэн Кертис Ли, Зендая Коулман, Меган Хилти, Роб Полсен, Джефф Беннетт, Джейсон Долли, Джейн Хоррокс, Кэри Уолгрен, Тиффани Торнтон...

О фильме:
Динь-Динь и её друзья собираются со всех уголков Нетландии, чтобы принять участие в Турнире Долины Фей - невероятных Олимпийских играх. Турнир обещает стать ярким зрелищем с фантастическими спортивными состязаниями и веселыми сюрпризами! Садовые Феи Розетта и Хлоя решают сразиться с действующими чемпионами - командой «Шторм». Глиммер и Рамбл принимают их вызов, и начинается самое захватывающее состязание всех времен. Все команды Фей будут стараться проявить себя с лучшей стороны, но победит только одна из них!..



Страна: США
Продолжительность: 00:22:34
Перевод: Дубляж

Файл
Кодек: H264
Качество: BDRip 1080p
Видео: 1920x1080, 7133 Kbps, 23,976 fps
Звук: 48 kHz, AC3, 2c, 192 kbps
Субтитры: Английские

Семпл



Общее
Уникальный идентификатор : 216783220000392786231621414935887536708 (0xA316EDF2A8E6AA4EB3F6057C9A2EE244)
Формат : Matroska
Версия формата : Version 4 / Version 2
Размер файла : 1,16 Гбайт
Продолжительность : 22 м.
Общий поток : 7328 Кбит/сек
Название фильма : Pixie Hollow Games (2011) BDRip 1080p от Dimok
Дата кодирования : UTC 2010-02-22 21:41:31
Программа кодирования : mkvmerge v5.9.0 ('On The Loose') built on Dec 9 2012 15:37:01
Библиотека кодирования : libebml v1.3.0 + libmatroska v1.4.0

Видео
Идентификатор : 1
Формат : AVC
Формат/Информация : Advanced Video Codec
Профиль формата : High@L4.1
Параметр CABAC формата : Да
Параметр ReFrames формата : 4 кадра
Идентификатор кодека : V_MPEG4/ISO/AVC
Продолжительность : 22 м.
Битрейт : 7133 Кбит/сек
Ширина : 1920 пикселей
Высота : 1080 пикселей
Соотношение сторон : 16:9
Режим частоты кадров : Постоянный
Частота кадров : 23,976 кадра/сек
Цветовое пространство : YUV
Субдискретизация насыщенности : 4:2:0
Битовая глубина : 8 бит
Тип развёртки : Прогрессивная
Бит/(Пиксели*Кадры) : 0.143
Размер потока : 1,10 Гбайт (95%)
Библиотека кодирования : x264 core 129 r2230 1cffe9f
Настройки программы : cabac=1 / ref=4 / deblock=1:0:0 / analyse=0x3:0x133 / me=umh / subme=10 / psy=1 / psy_rd=1.00:0.10 / mixed_ref=1 / me_range=32 / chroma_me=1 / trellis=2 / 8x8dct=1 / cqm=0 / deadzone=21,11 / fast_pskip=0 / chroma_qp_offset=-3 / threads=6 / lookahead_threads=1 / sliced_threads=0 / nr=0 / decimate=1 / interlaced=0 / bluray_compat=0 / constrained_intra=0 / bframes=3 / b_pyramid=2 / b_adapt=2 / b_bias=0 / direct=3 / weightb=1 / open_gop=0 / weightp=2 / keyint=240 / keyint_min=23 / scenecut=40 / intra_refresh=0 / rc_lookahead=69 / rc=2pass / mbtree=1 / bitrate=7133 / ratetol=1.0 / qcomp=0.62 / qpmin=0 / qpmax=69 / qpstep=4 / cplxblur=20.0 / qblur=0.5 / ip_ratio=1.40 / aq=1:1.00
Язык : English
Default : Да
Forced : Нет

Аудио
Идентификатор : 2
Формат : AC-3
Формат/Информация : Audio Coding 3
Расширение режима : CM (complete main)
Параметр Endianness формата : Big
Идентификатор кодека : A_AC3
Продолжительность : 22 м.
Вид битрейта : Постоянный
Битрейт : 192 Кбит/сек
Каналы : 2 канала
Расположение каналов : Front: L R
Частота : 48,0 КГц
Битовая глубина : 16 бит
Метод сжатия : С потерями
Размер потока : 31,0 Мбайт (3%)
Заголовок : Дубляж
Язык : Russian
Default : Да
Forced : Нет

Текст
Идентификатор : 3
Формат : UTF-8
Идентификатор кодека : S_TEXT/UTF8
Идентификатор кодека/Информация : UTF-8 Plain Text
Заголовок : SRT, Full
Язык : English
Default : Нет
Forced : Нет

Меню
00:00:00.000 : en:Chapter 1
00:04:21.344 : en:Chapter 2
00:10:43.852 : en:Chapter 3
00:15:43.192 : en:Chapter 4
00:21:59.443 : en:Chapter 5



   Похожие торренты   Торрент   Размер 
В этой теме нет новых непрочитанных сообщений. Турнир Долины Фей / Pixie Hollow Games (2011) BDRip от Stranik 2.0 | D

41 | 5

503.36 МБ

В этой теме нет новых непрочитанных сообщений. Турнир Долины Фей / Pixie Hollow Games (2011) BDRip 720p от Torrent-Xzona

60 | 11

699.75 МБ

В этой теме нет новых непрочитанных сообщений. Турнир Долины Фей / Tinker Bell and the Pixie Hollow Games (2011) HDTVRip

81 | 10

300.51 МБ

В этой теме нет новых непрочитанных сообщений. Феи. Торт и Спорт / Pixie Hollow. Bake off (2013) BDRip 1080p от ExKinoRay | D

921 | 34

350.55 МБ

В этой теме нет новых непрочитанных сообщений. Феи. Торт и Спорт / Pixie Hollow. Bake off (2013) BDRip 720 от SuperMin

746 | 55

165.51 МБ

В этой теме нет новых непрочитанных сообщений. Феи. Торт и Спорт / Pixie Hollow. Bake off (2013) BDRip 1080 от SuperMin

775 | 37

279.84 МБ

В этой теме нет новых непрочитанных сообщений. Игры киллеров / Assassination Games (2011) BDRip 1080p от MediaClub | D

74 | 48

7.09 ГБ




Вы не можете начинать темы
Вы не можете отвечать на сообщения
Вы не можете редактировать свои сообщения
Вы не можете удалять свои сообщения
Вы не можете добавлять вложения

Перейти:  
Для Мосгорсуда, Роскомнадзора и рекламодателей: mosgorsud-torrent[собачка]yandex.ru
 Вход
ppkBB3cker v.2 © 2008-2014 @ PPK
[ Time : 0.054s | 15 Queries | GZIP : Off ]

cron