img image001 image001 image001 image001 image001 image001 image001 image001 image001 image001 image001 image001 image001 image001 image001

Planets Sun Sun Sun
Статистика раздачи
Автор: Снежана | Размер: 4.37 ГБ | Добавлен: 27 июл 2013
Раздают: 20    Качают: 5
Скачать торрент
Скачать торрент
Описание торрента

СообщениеДобавлено: 27 июл 2013 

#77

Информация о фильме
Название: Гроза муравьев
Оригинальное название: The Ant Bully
Год выхода: 2006
Жанр: мультфильм, фэнтези, комедия, приключения, семейный
Режиссер: Джон А. Дэвис
В ролях: Джулия Робертс, Николас Кейдж, Мэрил Стрип, Пол Джаматти, Зэк Тайлер, Реджина Кинг, Брюс Кэмпбелл, Лили Томлин, Шери Отери, Ларри Миллер...

О фильме:
Бедняга Лукас Никл, десятилетний паренек, не представляет, как жить дальше. Недавно они с семьей переехали в другой город, где ему так и не удалось найти ни одного друга. Но еще хуже то, что Лукас становится главной мишенью Стива, местного хулигана, никогда не упускающего возможности покуражиться над ним. В отместку Лукас с наслаждением разрушает муравейники у себя во дворе, вымещая злобу на ни в чем не повинных грудах земли и их крошечных обитателях, пиная, топча и поливая тех из садового шланга. Муравьям так надоело, что их родные дома уничтожает вредный мальчишка, что они вполне готовы дать ему отпор. Волшебное зелье, над которым так долго трудился Старейшина-муравей Зок, наконец, готово. Одной капли этого чуда-зелья в гигантское ухо Лукаса достаточно для того, чтобы тот уменьшился до размеров муравья. Мудрая Королева приговаривает его к проживанию среди муравьев до тех пор, пока он не познает все тяготы их существования. Лукас неожиданно оказывается в потрясающем мире, о котором он раньше даже и не подозревал, в мире бурлящих событий и, порой, таящем в себе опасности. Так парнишка отправляется в самое захватывающее приключение в своей жизни...



Страна: США
Продолжительность: 01:29:03
Перевод: Дубляж

Файл
Кодек: H264
Качество: BDRip 1080p
Видео: 1920x1080, 6570 Kbps, 23,976 fps
Звук: 48 kHz, AC3, 6c, 448 kbps
Субтитры: Русские, английские

Семпл



Общее
Уникальный идентификатор : 241196314547785369104401022639978651921 (0xB574B8707B71D78599D9150231112111)
Формат : Matroska
Версия формата : Version 4 / Version 2
Размер файла : 4,37 Гбайт
Продолжительность : 1 ч. 29 м.
Общий поток : 7020 Кбит/сек
Название фильма : The Ant Bully (2006) BDRip 1080p от Dimok
Дата кодирования : UTC 2010-02-22 21:41:31
Программа кодирования : mkvmerge v5.9.0 ('On The Loose') built on Dec 9 2012 15:37:01
Библиотека кодирования : libebml v1.3.0 + libmatroska v1.4.0

Видео
Идентификатор : 1
Формат : AVC
Формат/Информация : Advanced Video Codec
Профиль формата : High@L4.1
Параметр CABAC формата : Да
Параметр ReFrames формата : 4 кадра
Идентификатор кодека : V_MPEG4/ISO/AVC
Продолжительность : 1 ч. 29 м.
Битрейт : 6570 Кбит/сек
Ширина : 1920 пикселей
Высота : 1080 пикселей
Соотношение сторон : 16:9
Режим частоты кадров : Постоянный
Частота кадров : 23,976 кадра/сек
Цветовое пространство : YUV
Субдискретизация насыщенности : 4:2:0
Битовая глубина : 8 бит
Тип развёртки : Прогрессивная
Бит/(Пиксели*Кадры) : 0.132
Размер потока : 4,00 Гбайт (92%)
Библиотека кодирования : x264 core 129 r2230 1cffe9f
Настройки программы : cabac=1 / ref=4 / deblock=1:0:0 / analyse=0x3:0x133 / me=umh / subme=10 / psy=1 / psy_rd=1.00:0.10 / mixed_ref=1 / me_range=32 / chroma_me=1 / trellis=2 / 8x8dct=1 / cqm=0 / deadzone=21,11 / fast_pskip=0 / chroma_qp_offset=-3 / threads=6 / lookahead_threads=1 / sliced_threads=0 / nr=0 / decimate=1 / interlaced=0 / bluray_compat=0 / constrained_intra=0 / bframes=3 / b_pyramid=2 / b_adapt=2 / b_bias=0 / direct=3 / weightb=1 / open_gop=0 / weightp=2 / keyint=240 / keyint_min=23 / scenecut=40 / intra_refresh=0 / rc_lookahead=64 / rc=2pass / mbtree=1 / bitrate=6570 / ratetol=1.0 / qcomp=0.70 / qpmin=0 / qpmax=69 / qpstep=4 / cplxblur=20.0 / qblur=0.5 / ip_ratio=1.40 / aq=1:1.00
Язык : English
Default : Да
Forced : Нет

Аудио
Идентификатор : 2
Формат : AC-3
Формат/Информация : Audio Coding 3
Расширение режима : CM (complete main)
Параметр Endianness формата : Big
Идентификатор кодека : A_AC3
Продолжительность : 1 ч. 29 м.
Вид битрейта : Постоянный
Битрейт : 448 Кбит/сек
Каналы : 6 каналов
Расположение каналов : Front: L C R, Side: L R, LFE
Частота : 48,0 КГц
Битовая глубина : 16 бит
Метод сжатия : С потерями
Размер потока : 285 Мбайт (6%)
Заголовок : Дубляж
Язык : Russian
Default : Да
Forced : Нет

Текст #1
Идентификатор : 3
Формат : UTF-8
Идентификатор кодека : S_TEXT/UTF8
Идентификатор кодека/Информация : UTF-8 Plain Text
Язык : Russian
Default : Да
Forced : Нет

Текст #2
Идентификатор : 4
Формат : UTF-8
Идентификатор кодека : S_TEXT/UTF8
Идентификатор кодека/Информация : UTF-8 Plain Text
Язык : English
Default : Нет
Forced : Нет

Меню
00:00:00.000 : en:01
00:03:46.583 : en:02
00:07:30.667 : en:03
00:12:49.208 : en:04
00:17:32.708 : en:05
00:22:53.958 : en:06
00:26:01.667 : en:07
00:34:38.542 : en:08
00:39:03.875 : en:09
00:42:38.042 : en:10
00:46:35.417 : en:11
00:49:58.583 : en:12
00:56:49.375 : en:13
01:01:58.833 : en:14
01:08:51.500 : en:15
01:11:53.125 : en:16
01:17:36.833 : en:17
01:19:01.167 : en:18



   Похожие торренты   Торрент   Размер 
В этой теме нет новых непрочитанных сообщений. Гроза муравьев / The Ant Bully (2006) BDRip 1080p [Hi10P] от FREEISLAND

13 | 3

2.91 ГБ

В этой теме нет новых непрочитанных сообщений. Гроза муравьев / The Ant Bully (2006) BDRip-AVC от R.G. AVI AVC

1 | 2

1.65 ГБ

В этой теме нет новых непрочитанных сообщений. Гроза муравьев / The Ant Bully (2006) BDRip от HQCLUB

91 | 4

1.45 ГБ

В этой теме нет новых непрочитанных сообщений. Гроза муравьев / The Ant Bully (2006) BDRip 720 от SuperMin

75 | 19

2.11 ГБ

В этой теме нет новых непрочитанных сообщений. Гроза муравьев / Ant Bully, The (2006) HDRip от HQ-ViDEO

8 | 5

1.46 ГБ

В этой теме нет новых непрочитанных сообщений. Гроза над Тихоречьем / Гроза над Тихоріччям [01-03 из 04] (2016) WEB-DLRip-AVC от Files-x

0 | 0

2.3 ГБ

В этой теме нет новых непрочитанных сообщений. Гроза над Тихоречьем / Гроза над Тихоріччям [01-04 из 04] (2016) SATRip-AVC от Files-x

0 | 0

1.98 ГБ




Вы не можете начинать темы
Вы не можете отвечать на сообщения
Вы не можете редактировать свои сообщения
Вы не можете удалять свои сообщения
Вы не можете добавлять вложения

Перейти:  
Для Мосгорсуда, Роскомнадзора и рекламодателей: mosgorsud-torrent[собачка]yandex.ru
 Вход
ppkBB3cker v.2 © 2008-2014 @ PPK
[ Time : 0.020s | 14 Queries | GZIP : On ]

Торрент трекер RUTOR.IN, Не можете зайти на rutor.org? Какой новый адрес рутор? Какое зеркало рутор? Не работает rutor.org и зеркала? Тогда наш торрент специально для вас. Rutor.in неофициальное зеркало rutor. В случае если у Вас заблокирован rutor или вдруг Вы не можете на него зайти, то Вы без труда сможете скачать бесплатно и без рекламы последние новинки кино, игр, сериалов и прочего у нас, на Rutor.in. Не нужно использовать прокси, чтобы зайти на рутор, достаточно воспользоваться нашим ресурсом. Все новые фильмы, игры, сериалы, книги и музыка за 2013 и 2014 годы через торрент бесплатно. Скачивайте фильмы в хорошем качестве, игры для пк, xbox, playstation без регистрации. У нас вы найдете новые Зарубежные сериалы и Русские сериалы 2013, 2014, 2015 годов. Оставайтесь с нами, качайте любимые фильмы, игры, сериалы, книги и музыку.