img image001 image001 image001 image001 image001 image001 image001 image001 image001 image001 image001 image001 image001 image001 image001

Planets Sun Sun Sun
Статистика раздачи
Автор: Снежана | Размер: 6.58 ГБ | Добавлен: 27 июл 2013
Раздают: 27    Качают: 3
Скачать торрент
Скачать торрент
Описание торрента

СообщениеДобавлено: 27 июл 2013 

#77

Информация о фильме
Название: Обитель зла: Вырождение
Оригинальное название: Resident Evil: Degeneration
Год выхода: 2008
Жанр: мультфильм, ужасы, фантастика, боевик, триллер
Режиссер: Макото Камия
В ролях: Элисон Корт, Пол Мерсье, Лаура Бэйли, Стивен Блум, Криспин Фриман, Дэйв Маллоу, Жоржетт Роуз, Роджер Крэйг Смит, Майкл Сорич

О фильме:
Нападение зомби приносит хаос в аэропорт Харвардвиль. Клэр Рэдфилд и Леон Кеннеди боровшиеся с корпорацией «Umbrella» во время трагедии в Раккун Сити 7 лет назад вновь вернулись. Они готовы к битве с противником который ищет мести после смерти его семьи в Раккун Сити. Смертельный G-вирус выпущен на свободу и рождает нового мутировавшего монстра. Уничтожат ли Клэр и Леон этот вирус до того как история повторится?

Общее
Полное имя : D:ТорентыVIDEO_TSVTS_01_1.VOB
Формат : MPEG-PS
Размер файла : 1024 Мбайт
Продолжительность : 23 м.
Режим общего битрейта : Переменный
Общий поток : 6004 Кбит/сек

Видео
Идентификатор : 224 (0xE0)
Формат : MPEG Video
Версия формата : Version 2
Профиль формата : Main@Main
Параметр BVOP формата : Да
Параметр матрицы формата : Выборочная
Параметр GOP формата : Variable
Продолжительность : 23 м.
Вид битрейта : Переменный
Битрейт : 5117 Кбит/сек
Максимальный битрейт : 9000 Кбит/сек
Ширина : 720 пикселей
Высота : 576 пикселей
Соотношение сторон : 16:9
Частота кадров : 25,000 кадров/сек
Стандарт вещания : PAL
Цветовое пространство : YUV
Субдискретизация насыщенности : 4:2:0
Битовая глубина : 8 бит
Тип развёртки : Прогрессивная
Порядок развёртки : Верхнее поле первое
Метод сжатия : С потерями
Бит/(Пиксели*Кадры) : 0.494
Размер потока : 873 Мбайт (85%)

Аудио #1
Идентификатор : 189 (0xBD)-128 (0x80)
Формат : AC-3
Формат/Информация : Audio Coding 3
Расширение режима : CM (complete main)
Параметр Endianness формата : Big
Режим смешивания : DVD-Video
Продолжительность : 23 м.
Вид битрейта : Постоянный
Битрейт : 384 Кбит/сек
Каналы : 6 каналов
Расположение каналов : Front: L C R, Side: L R, LFE
Частота : 48,0 КГц
Битовая глубина : 16 бит
Метод сжатия : С потерями
Размер потока : 65,5 Мбайт (6%)

Аудио #2
Идентификатор : 189 (0xBD)-129 (0x81)
Формат : AC-3
Формат/Информация : Audio Coding 3
Расширение режима : CM (complete main)
Параметр Endianness формата : Big
Режим смешивания : DVD-Video
Продолжительность : 23 м.
Вид битрейта : Постоянный
Битрейт : 384 Кбит/сек
Каналы : 6 каналов
Расположение каналов : Front: L C R, Side: L R, LFE
Частота : 48,0 КГц
Битовая глубина : 16 бит
Метод сжатия : С потерями
Размер потока : 65,5 Мбайт (6%)

Меню


Страна: Япония
Продолжительность: 97 мин. / 01:37
Перевод: Профессиональный (многоголосый, закадровый)

Файл
Кодек: MPEG2
Качество: DVD9
Видео: PAL 16:9 (720x576) VBR 5117 Кбит/сек, 25,000 кадров/сек
Звук:
Русский Dolby Digital 5.1, 6 ch, 384 Кбит/сек;
Английский Dolby Digital 5, 6 ch, 384 Кбит/сек
# Рождение "Вырождения"
# Досье: Леон С. Кеннеди, Клэр Рэдфильд, Анжела Миллер, Грег Гленн, Кертис Миллер, Сенатор Рон Дэвис, Фредерик Даунинг, Рани Чоула, Ингрид Ханнигэн, Г-вирус
# Смешные дубли: Непристойное предложение, Вопросы оплаты труда, Настоящие мужчины, Вирус любви
# Интервью с псевдо-Леоном
# Рекламные ролики: "Обитель зла: вырождение"
# "Обитель Зла 5": ролик для токийской выставки игр 2008
# "Обитель Зла 5": специальный рекламный ролик для кинотеатров и многое другое ...





   Похожие торренты   Торрент   Размер 
В этой теме нет новых непрочитанных сообщений. Обитель зла: Вырождение / Resident Evil: Degeneration (2008) HDRip-AVC | P

16 | 0

741.23 МБ

В этой теме нет новых непрочитанных сообщений. Обитель зла: Вырождение / Resident Evil: Degeneration (2008) DVD5

25 | 4

3.35 ГБ

В этой теме нет новых непрочитанных сообщений. Обитель зла: Вырождение / Resident Evil: Degeneration (2008) BDRip от HQCLUB

59 | 12

1.46 ГБ

В этой теме нет новых непрочитанных сообщений. Обитель зла: Вырождение / Resident Evil: Degeneration (2008) BDRip 720p

6 | 4

4.36 ГБ

В этой теме нет новых непрочитанных сообщений. Обитель зла: Вырождение / Resident Evil: Degeneration (2008) BDRip-AVC от ExKinoRay

19 | 8

1.98 ГБ

В этой теме нет новых непрочитанных сообщений. Обитель зла: Вырождение / Resident Evil: Degeneration (2008) BDRip от Freeisland

2 | 5

2.15 ГБ

В этой теме нет новых непрочитанных сообщений. Обитель зла: Вырождение / Resident Evil: Degeneration (2008) BDRip 720 от SuperMin

7 | 19

3.85 ГБ




Вы не можете начинать темы
Вы не можете отвечать на сообщения
Вы не можете редактировать свои сообщения
Вы не можете удалять свои сообщения
Вы не можете добавлять вложения

Перейти:  
Для Мосгорсуда, Роскомнадзора и рекламодателей: mosgorsud-torrent[собачка]yandex.ru
 Вход
ppkBB3cker v.2 © 2008-2014 @ PPK
[ Time : 0.044s | 14 Queries | GZIP : Off ]

Торрент трекер RUTOR.IN, Не можете зайти на rutor.org? Какой новый адрес рутор? Какое зеркало рутор? Не работает rutor.org и зеркала? Тогда наш торрент специально для вас. Rutor.in неофициальное зеркало rutor. В случае если у Вас заблокирован rutor или вдруг Вы не можете на него зайти, то Вы без труда сможете скачать бесплатно и без рекламы последние новинки кино, игр, сериалов и прочего у нас, на Rutor.in. Не нужно использовать прокси, чтобы зайти на рутор, достаточно воспользоваться нашим ресурсом. Все новые фильмы, игры, сериалы, книги и музыка за 2013 и 2014 годы через торрент бесплатно. Скачивайте фильмы в хорошем качестве, игры для пк, xbox, playstation без регистрации. У нас вы найдете новые Зарубежные сериалы и Русские сериалы 2013, 2014, 2015 годов. Оставайтесь с нами, качайте любимые фильмы, игры, сериалы, книги и музыку.