img image001 image001 image001 image001 image001 image001 image001 image001 image001 image001 image001 image001 image001 image001 image001

Planets Sun Sun Sun
Статистика раздачи
Автор: Снежана | Размер: 378.98 МБ | Добавлен: 27 июл 2013
Раздают: 11    Качают: 3
Скачать торрент
Скачать торрент
Описание торрента

СообщениеДобавлено: 27 июл 2013 

#77

Информация о фильме

Название : Чаббчаббы / Толстяки
Оригинальное название : The Chubbchubbs
Год выхода : 2002
Жанр : мультфильм, короткометражка, фантастика, комедия, семейный
Режиссер : Эрик Армстронг
Роли озвучивали : Брэдфорд Симонсен, Мортонетт Дженкинс, Джефф Уолвертон, Питер Лури, Рик Зефф, Дастин Эдейр, Эрик, Армстронг, Яков Бэйтлер, Мэри Биондо, Самит Дас


Описание : Мипер работает уборщиком в инопланетном баре, но желает быть певцом караоке. После того, как он, замечтавшись, опрокидывает ведро с водой на электрический провод от микрофона, чем вызывает электрошок у певицы, его выкидывают из бара. Там он встречает умирающего Джар Джар Бинкса, который сообщает ему, что «Чаббчаббы идут!». Вдалеке Мипер видит поднимающуюся пыль от толпы надвигающихся монстров, думает, что это Чаббчаббы, и спешит в бар, предупредить о наступлении. Открыв дверь, он прихлопывает ею певицу и, не успев поведать об опасности, вновь оказывается выброшенным на улицу. На улице он видит несколько милых цыплят и приближающуюся армию монстров. Попытавшись предупредить посетителей бара в третий раз через отверстие в крыше, он проваливается и вновь сбивает певицу, когда кто-то другой заглядывает через дверь с криком «Чаббчаббы идут!»
Страна : США
Производство : Sony Pictures Imageworks
Продолжительность : 00:05:41
Перевод : Любительский (Одноголосый закадровый)
Файл
Формат видео : MKV
Качество : BDRip-720p

Видео : AVC, 1280x720 (16:9), 23.976 fps, ~3200 Kbps (0.145 bit/pixel)
Звук 1: AC3, 48.0 KHz, 2 ch, ~192 Kbps (Rus)
Звук 2: AC3, 48.0 KHz, 6 ch, ~448 Kbps (Eng)
Субтитры : нет



General
Unique ID : 218456219289652361488984298646820344969 (0xA459232E66612E3FA55517B236DFD489)
Complete name : The Chubbchubbs (2002) BDRip-720p from Stranik 2.0.mkv
Format : Matroska
File size : 156 MiB
Duration : 5mn 41s
Overall bit rate : 3 823 Kbps
Encoded date : UTC 2013-01-13 07:32:32
Writing application : mkvmerge v5.5.0 ('Healer') built on Apr 6 2012 21:43:24
Writing library : libebml v1.2.3 + libmatroska v1.3.0

Video #1
ID : 1
Format : AVC
Format/Info : Advanced Video Codec
Format profile : High@L4.1
Format settings, CABAC : Yes
Format settings, ReFrames : 8 frames
Format settings, GOP : M=9, N=23
Muxing mode : Header stripping
Codec ID : V_MPEG4/ISO/AVC
Duration : 5mn 41s
Bit rate : 3 200 Kbps
Width : 1 280 pixels
Height : 720 pixels
Display aspect ratio : 16:9
Frame rate : 23.976 fps
Color space : YUV
Chroma subsampling : 4:2:0
Bit depth : 8 bits
Scan type : Progressive
Bits/(Pixel*Frame) : 0.145
Stream size : 127 MiB (81%)
Writing library : x264 core 125 r2208 d9d2288
Encoding settings : cabac=1 / ref=8 / deblock=1:-1:-1 / analyse=0x3:0x133 / me=umh / subme=9 / psy=1 / psy_rd=0.40:0.00 / mixed_ref=1 / me_range=16 / chroma_me=1 / trellis=2 / 8x8dct=1 / cqm=0 / deadzone=21,11 / fast_pskip=0 / chroma_qp_offset=-2 / threads=3 / lookahead_threads=1 / sliced_threads=0 / nr=0 / decimate=1 / interlaced=0 / bluray_compat=0 / constrained_intra=0 / bframes=8 / b_pyramid=2 / b_adapt=2 / b_bias=0 / direct=3 / weightb=1 / open_gop=0 / weightp=2 / keyint=240 / keyint_min=25 / scenecut=40 / intra_refresh=0 / rc_lookahead=220 / rc=2pass / mbtree=1 / bitrate=3200 / ratetol=1.0 / qcomp=0.60 / qpmin=10 / qpmax=69 / qpstep=4 / cplxblur=20.0 / qblur=0.5 / ip_ratio=1.40 / aq=1:0.60

Audio #2
ID : 2
Format : AC-3
Format/Info : Audio Coding 3
Mode extension : CM (complete main)
Muxing mode : Header stripping
Codec ID : A_AC3
Duration : 5mn 41s
Bit rate mode : Constant
Bit rate : 192 Kbps
Channel(s) : 2 channels
Channel positions : Front: L R
Sampling rate : 48.0 KHz
Bit depth : 16 bits
Compression mode : Lossy
Delay relative to video : 5ms
Stream size : 7.82 MiB (5%)
Title : VO
Language : Russian

Audio #3
ID : 3
Format : AC-3
Format/Info : Audio Coding 3
Mode extension : CM (complete main)
Muxing mode : Header stripping
Codec ID : A_AC3
Duration : 5mn 41s
Bit rate mode : Constant
Bit rate : 448 Kbps
Channel(s) : 6 channels
Channel positions : Front: L C R, Side: L R, LFE
Sampling rate : 48.0 KHz
Bit depth : 16 bits
Compression mode : Lossy
Stream size : 18.2 MiB (12%)
Title : ENG
Language : English






Информация о фильме

Название : Чаббчаббы спасают Рождество
Оригинальное название : The Chubbchubbs Save Xmas
Год выхода : 2007
Жанр : мультфильм, короткометражка
Режиссер : Коуди Камерон
Роли озвучивали : Коуди Камерон, Мэнди Фройнд, Захари Гордан, Брэдфорд Симонсен, Джефри Тэмбор, Джефф Уолвертон


Описание : Именно так, «Чаббчаббс спасает Рождество», и озаглавлена анимационная короткометражка, являющаяся продолжением мультфильма «Чаббчаббс», отмеченного премией «Оскар». Первая демонстрация «сиквела», режиссёром которого выступил Коди Кэмерон, а продюсером – Керк Бодифелт, состоялась 8-го августа 2007-го года и была приурочена к премьере комедии TriStar Pictures «Лагерь заботливых отцов».
Страна : США
Производство : Prana Studios, Sony Pictures Imageworks
Продолжительность : 00:05:44
Перевод : Любительский (Дублированный) VSTeam Creative Group

Релиз :
Файл
Формат видео : MKV
Качество : BDRip-720p

Видео : AVC, 1280x696 (16:9), 23.976 fps, ~4800 Kbps (0.225 bit/pixel)
Звук 1: MP3, 48.0 KHz, 2 ch, ~320 Kbps (Rus)
Звук 2: MP3, 48.0 KHz, 2 ch, ~320 Kbps (Eng)
Субтитры : нет



General
Unique ID : 252623054960341638770057685779683083410 (0xBE0D6E3D0D2892BC9D50B9D479220492)
Complete name : The Chubbchubbs Save Xmas (2007) BDRip-720p from Stranik 2.0.mkv
Format : Matroska
File size : 223 MiB
Duration : 5mn 44s
Overall bit rate : 5 443 Kbps
Encoded date : UTC 2013-01-13 07:30:56
Writing application : mkvmerge v5.5.0 ('Healer') built on Apr 6 2012 21:43:24
Writing library : libebml v1.2.3 + libmatroska v1.3.0

Video #1
ID : 1
Format : AVC
Format/Info : Advanced Video Codec
Format profile : High@L4.1
Format settings, CABAC : Yes
Format settings, ReFrames : 8 frames
Muxing mode : Header stripping
Codec ID : V_MPEG4/ISO/AVC
Duration : 5mn 44s
Bit rate : 4 800 Kbps
Width : 1 280 pixels
Height : 696 pixels
Display aspect ratio : 16:9
Frame rate : 23.976 fps
Color space : YUV
Chroma subsampling : 4:2:0
Bit depth : 8 bits
Scan type : Progressive
Bits/(Pixel*Frame) : 0.225
Stream size : 193 MiB (86%)
Writing library : x264 core 125 r2208 d9d2288
Encoding settings : cabac=1 / ref=8 / deblock=1:-1:-1 / analyse=0x3:0x133 / me=umh / subme=9 / psy=1 / psy_rd=0.40:0.00 / mixed_ref=1 / me_range=16 / chroma_me=1 / trellis=2 / 8x8dct=1 / cqm=0 / deadzone=21,11 / fast_pskip=0 / chroma_qp_offset=-2 / threads=3 / lookahead_threads=1 / sliced_threads=0 / nr=0 / decimate=1 / interlaced=0 / bluray_compat=0 / constrained_intra=0 / bframes=8 / b_pyramid=2 / b_adapt=2 / b_bias=0 / direct=3 / weightb=1 / open_gop=0 / weightp=2 / keyint=240 / keyint_min=25 / scenecut=40 / intra_refresh=0 / rc_lookahead=240 / rc=2pass / mbtree=1 / bitrate=4800 / ratetol=1.0 / qcomp=0.60 / qpmin=10 / qpmax=69 / qpstep=4 / cplxblur=20.0 / qblur=0.5 / ip_ratio=1.40 / aq=1:0.60

Audio #2
ID : 2
Format : MPEG Audio
Format version : Version 1
Format profile : Layer 3
Muxing mode : Header stripping
Codec ID : A_MPEG/L3
Codec ID/Hint : MP3
Duration : 5mn 44s
Bit rate mode : Constant
Bit rate : 320 Kbps
Channel(s) : 2 channels
Sampling rate : 48.0 KHz
Compression mode : Lossy
Stream size : 13.1 MiB (6%)
Title : DUB
Writing library : LAMELAME
Language : Russian

Audio #3
ID : 3
Format : MPEG Audio
Format version : Version 1
Format profile : Layer 3
Muxing mode : Header stripping
Codec ID : A_MPEG/L3
Codec ID/Hint : MP3
Duration : 5mn 44s
Bit rate mode : Constant
Bit rate : 320 Kbps
Channel(s) : 2 channels
Sampling rate : 48.0 KHz
Compression mode : Lossy
Stream size : 13.1 MiB (6%)
Title : ENG
Writing library : LAMELAME
Language : English



Время раздачи с 7.00 до 00.00 по Москве ( пока не появятся другие сиды ) .





   Похожие торренты   Торрент   Размер 
В этой теме нет новых непрочитанных сообщений. Толстяки [Чаббчаббы] / The Chubbchubbs! (2002) BDRip от HQ-ViDEO

1 | 5

115.94 МБ

В этой теме нет новых непрочитанных сообщений. Чаббчаббы / The Chubbchubbs (2002) DVDRip (BDRip) - Zona-X

0 | 2

59.43 МБ

В этой теме нет новых непрочитанных сообщений. ЧаббЧаббы / The Chubbchubbs (2002) HDRip-AVC от ExKinoRay

14 | 2

147.38 МБ

В этой теме нет новых непрочитанных сообщений. Толстяки спасают Рождество / The Chubbchubbs Save Xmas (2007) BDRip от HQ-ViDEO | D

124 | 6

85.37 МБ

В этой теме нет новых непрочитанных сообщений. Стюарт Литтл: Дилогия / Stuart Little: Dilogy (1999-2002) BDRip 720p | Лицензия

205 | 8

8.74 ГБ

В этой теме нет новых непрочитанных сообщений. 300 спартанцев: Дилогия / 300: Dilogy (2007-2014) BDRip 720p от R.G. HD-Films | 60 fps | D

184 | 110

10.5 ГБ

В этой теме нет новых непрочитанных сообщений. Лило и Стич: Дилогия / Lilo & Stitch: Dilogy (2002-2005) BDRip 720p от Leonardo and Scarabey | iPad

125 | 26

1.42 ГБ




Вы не можете начинать темы
Вы не можете отвечать на сообщения
Вы не можете редактировать свои сообщения
Вы не можете удалять свои сообщения
Вы не можете добавлять вложения

Перейти:  
Для Мосгорсуда, Роскомнадзора и рекламодателей: mosgorsud-torrent[собачка]yandex.ru
 Вход
ppkBB3cker v.2 © 2008-2014 @ PPK
[ Time : 0.028s | 15 Queries | GZIP : Off ]

Торрент трекер RUTOR.IN, Не можете зайти на rutor.org? Какой новый адрес рутор? Какое зеркало рутор? Не работает rutor.org и зеркала? Тогда наш торрент специально для вас. Rutor.in неофициальное зеркало rutor. В случае если у Вас заблокирован rutor или вдруг Вы не можете на него зайти, то Вы без труда сможете скачать бесплатно и без рекламы последние новинки кино, игр, сериалов и прочего у нас, на Rutor.in. Не нужно использовать прокси, чтобы зайти на рутор, достаточно воспользоваться нашим ресурсом. Все новые фильмы, игры, сериалы, книги и музыка за 2013 и 2014 годы через торрент бесплатно. Скачивайте фильмы в хорошем качестве, игры для пк, xbox, playstation без регистрации. У нас вы найдете новые Зарубежные сериалы и Русские сериалы 2013, 2014, 2015 годов. Оставайтесь с нами, качайте любимые фильмы, игры, сериалы, книги и музыку.