img image001 image001 image001 image001 image001 image001 image001 image001 image001 image001 image001 image001 image001 image001 image001

Planets Sun Sun Sun
Статистика раздачи
Автор: Снежана | Размер: 4.37 ГБ | Добавлен: 27 июл 2013
Раздают: 14    Качают: 7
Скачать торрент
Скачать торрент
Описание торрента

СообщениеДобавлено: 27 июл 2013 

#77

Информация о фильме
Название: Дон Кихот
Оригинальное название: Donkey Xote
Год выхода: 2007
Жанр: Комедия, Приключения, мультфильм
Режиссер: Хосе Посо
В ролях: Санчо Грация, Хосе Луис Джил, Андре Буенафуенте, Соня Феррер, Дэвид Фернандез, Джорди Гонзалез, Луис Посада...

О фильме:
Что если приключение Дон Кихота было не таким, как нам всегда рассказывали?Пришло время Русио — самого авантюрного, смелого и хитроумного осла Кастильи — рассказать настоящую историю. Устав от созерцательного образа жизни, который, кажется, введут все в Ла Манче, Русио не колеблется ни секунды, когда появляется возможность окунуться в приключение: Рыцарь Полумесяца вызвал Кихота на беспрецедентную дуэль в Барселоне. Самая сложная задача — убедить Росинанта, коня, который не чтит свою родословную и предпочитает болтаться без дела вместо того, чтобы скакать по равнинам Кастильи. Еще более сложная задача — избежать всех опасностей, которые подстерегают их на пути в Барселону: шпионы-горностаи, фальшивые Дульсинеи, истеричные герцоги... и самую большую опасность из всех — таинственного Темного Рыцаря.Это не так просто быть героем в такие трудные времена... также как нелегко ослу быть конем, а петуху телохранителем... Или сумасшедшему быть рыцарем.Кроме как здесь. Здесь возможно все... Это и еще много чего! Смогут ли Русио и Росинант добраться до пункта назначения? Если да, то смогут ли они победить Рыцаря Полумесяца? В одной из деревень Ла Манчи начинается настоящее приключение!



Страна: Италия | Испания
Продолжительность: 01:27:31
Перевод: Дубляж

Файл
Кодек: H264
Качество: BDRip 1080p
Видео: 1920x816, 6511 Kbps, 23,976 fps
Звук: 48 kHz, AC3, 6c, 640 kbps
Субтитры: Русские, английские

Семпл



Общее
Уникальный идентификатор : 247869147603171406171218028348420191804 (0xBA79DC82793C27BFB4B04A865718F63C)
Формат : Matroska
Версия формата : Version 4 / Version 2
Размер файла : 4,37 Гбайт
Продолжительность : 1 ч. 27 м.
Общий поток : 7146 Кбит/сек
Название фильма : Donkey Xote (2007) BDRip 1080p от Dimok
Дата кодирования : UTC 2010-02-22 21:41:31
Программа кодирования : mkvmerge v5.9.0 ('On The Loose') built on Dec 9 2012 15:37:01
Библиотека кодирования : libebml v1.3.0 + libmatroska v1.4.0

Видео
Идентификатор : 1
Формат : AVC
Формат/Информация : Advanced Video Codec
Профиль формата : High@L4.1
Параметр CABAC формата : Да
Параметр ReFrames формата : 5 кадров
Идентификатор кодека : V_MPEG4/ISO/AVC
Продолжительность : 1 ч. 27 м.
Битрейт : 6511 Кбит/сек
Ширина : 1920 пикселей
Высота : 816 пикселей
Соотношение сторон : 2,35:1
Режим частоты кадров : Постоянный
Частота кадров : 23,976 кадра/сек
Цветовое пространство : YUV
Субдискретизация насыщенности : 4:2:0
Битовая глубина : 8 бит
Тип развёртки : Прогрессивная
Бит/(Пиксели*Кадры) : 0.173
Размер потока : 3,89 Гбайт (89%)
Библиотека кодирования : x264 core 129 r2230 1cffe9f
Настройки программы : cabac=1 / ref=5 / deblock=1:0:0 / analyse=0x3:0x133 / me=umh / subme=10 / psy=1 / psy_rd=1.00:0.10 / mixed_ref=1 / me_range=32 / chroma_me=1 / trellis=2 / 8x8dct=1 / cqm=0 / deadzone=21,11 / fast_pskip=0 / chroma_qp_offset=-3 / threads=6 / lookahead_threads=1 / sliced_threads=0 / nr=0 / decimate=1 / interlaced=0 / bluray_compat=0 / constrained_intra=0 / bframes=3 / b_pyramid=2 / b_adapt=2 / b_bias=0 / direct=3 / weightb=1 / open_gop=0 / weightp=2 / keyint=240 / keyint_min=23 / scenecut=40 / intra_refresh=0 / rc_lookahead=65 / rc=2pass / mbtree=1 / bitrate=6511 / ratetol=1.0 / qcomp=0.60 / qpmin=0 / qpmax=69 / qpstep=4 / cplxblur=20.0 / qblur=0.5 / ip_ratio=1.40 / aq=1:1.00
Язык : English
Default : Да
Forced : Нет

Аудио
Идентификатор : 2
Формат : AC-3
Формат/Информация : Audio Coding 3
Расширение режима : CM (complete main)
Параметр Endianness формата : Big
Идентификатор кодека : A_AC3
Продолжительность : 1 ч. 27 м.
Вид битрейта : Постоянный
Битрейт : 640 Кбит/сек
Каналы : 6 каналов
Расположение каналов : Front: L C R, Side: L R, LFE
Частота : 48,0 КГц
Битовая глубина : 16 бит
Метод сжатия : С потерями
Размер потока : 401 Мбайт (9%)
Заголовок : Дубляж
Язык : Russian
Default : Да
Forced : Нет

Текст #1
Идентификатор : 3
Формат : UTF-8
Идентификатор кодека : S_TEXT/UTF8
Идентификатор кодека/Информация : UTF-8 Plain Text
Язык : Russian
Default : Да
Forced : Нет

Текст #2
Идентификатор : 4
Формат : UTF-8
Идентификатор кодека : S_TEXT/UTF8
Идентификатор кодека/Информация : UTF-8 Plain Text
Язык : English
Default : Нет
Forced : Нет

Меню
00:00:00.000 : :Chapter 1
00:05:20.554 : :Chapter 2
00:10:30.540 : :Chapter 3
00:15:36.351 : :Chapter 4
00:20:40.654 : :Chapter 5
00:25:57.457 : :Chapter 6
00:30:31.521 : :Chapter 7
00:35:50.963 : :Chapter 8
00:40:45.258 : :Chapter 9
00:45:24.658 : :Chapter 10
00:50:05.325 : :Chapter 11
00:55:42.265 : :Chapter 12
01:00:24.312 : :Chapter 13
01:05:12.456 : :Chapter 14
01:10:52.954 : :Chapter 15
01:15:27.522 : :Chapter 16



   Похожие торренты   Торрент   Размер 
В этой теме нет новых непрочитанных сообщений. Дон Кихот / Donkey Xote (2007) BDRip от HQ-ViDEO

20 | 5

1.46 ГБ

В этой теме нет новых непрочитанных сообщений. Дон Кихот / Donkey Xote (2007) BDRip от HQCLUB

98 | 56

1.45 ГБ

В этой теме нет новых непрочитанных сообщений. Дон Кихот / Donkey Xote (2007) BDRip 720 от SuperMin

408 | 26

2.22 ГБ

В этой теме нет новых непрочитанных сообщений. Дон Кихот / Donkey Xote (2007) DVDRip

2 | 7

1.37 ГБ

В этой теме нет новых непрочитанных сообщений. Дон Кихот / Donkey Xote (2007) PC | RePack от Heather

9 | 2

840.2 МБ

В этой теме нет новых непрочитанных сообщений. Морская прогулка / Donkey Punch (2008) BDRip от Koenig | P

2 | 0

1.45 ГБ

В этой теме нет новых непрочитанных сообщений. Морская прогулка / Donkey Punch (2008) BDRip 720p от FireBit

4 | 4

2.17 ГБ




Вы не можете начинать темы
Вы не можете отвечать на сообщения
Вы не можете редактировать свои сообщения
Вы не можете удалять свои сообщения
Вы не можете добавлять вложения

Перейти:  
Для Мосгорсуда, Роскомнадзора и рекламодателей: mosgorsud-torrent[собачка]yandex.ru
 Вход
ppkBB3cker v.2 © 2008-2014 @ PPK
[ Time : 0.051s | 16 Queries | GZIP : Off ]

Торрент трекер RUTOR.IN, Не можете зайти на rutor.org? Какой новый адрес рутор? Какое зеркало рутор? Не работает rutor.org и зеркала? Тогда наш торрент специально для вас. Rutor.in неофициальное зеркало rutor. В случае если у Вас заблокирован rutor или вдруг Вы не можете на него зайти, то Вы без труда сможете скачать бесплатно и без рекламы последние новинки кино, игр, сериалов и прочего у нас, на Rutor.in. Не нужно использовать прокси, чтобы зайти на рутор, достаточно воспользоваться нашим ресурсом. Все новые фильмы, игры, сериалы, книги и музыка за 2013 и 2014 годы через торрент бесплатно. Скачивайте фильмы в хорошем качестве, игры для пк, xbox, playstation без регистрации. У нас вы найдете новые Зарубежные сериалы и Русские сериалы 2013, 2014, 2015 годов. Оставайтесь с нами, качайте любимые фильмы, игры, сериалы, книги и музыку.