img image001 image001 image001 image001 image001 image001 image001 image001 image001 image001 image001 image001 image001 image001 image001

Planets Sun Sun Sun
Статистика раздачи
Автор: Снежана | Размер: 4.37 ГБ | Добавлен: 27 июл 2013
Раздают: 4    Качают: 3
Скачать торрент
Скачать торрент
Описание торрента

СообщениеДобавлено: 27 июл 2013 

#77

Информация о фильме
Название: Мухнём на Луну
Оригинальное название: Fly Me to the Moon
Год выхода: 2008
Жанр: Комедия, Приключения, мультфильм
Режиссер: Бен Стассен
В ролях: Тим Карри, Роберт Патрик, Келли Рипа, Базз Алдрин, Тревор Ганьон, Филип Болден, Николетт Шеридан, Эд Бегли мл., Дэвид Гор, Кристофер Ллойд...

О фильме:
Мечты о звездах и путешествиях к далеким космическим галактикам будоражат не только людские умы. Оказывается, ничто человеческое не чуждо и… мухам. Три отважные мушки тайком пробираются на космический корабль. Их ждет полный невероятных приключений полет на Луну…



Страна: США, Бельгия
Продолжительность: 01:20:52
Перевод: Дубляж

Файл
Кодек: H264
Качество: BDRip 1080p
Видео: 1920x1080, 7089 Kbps, 23,976 fps
Звук: 48 kHz, AC3, 6c, 640 kbps
Субтитры: Английские

Семпл



Общее
Уникальный идентификатор : 246678546905210278822719448471076249688 (0xB9948F5CF6C69B8FAA682E048F8AA058)
Формат : Matroska
Версия формата : Version 4 / Version 2
Размер файла : 4,37 Гбайт
Продолжительность : 1 ч. 20 м.
Общий поток : 7728 Кбит/сек
Название фильма : Fly Me to the Moon (2008) BDRip 1080p от Dimok
Дата кодирования : UTC 2010-02-22 21:41:31
Программа кодирования : mkvmerge v5.9.0 ('On The Loose') built on Dec 9 2012 15:37:01
Библиотека кодирования : libebml v1.3.0 + libmatroska v1.4.0

Видео
Идентификатор : 1
Формат : AVC
Формат/Информация : Advanced Video Codec
Профиль формата : High@L4.1
Параметр CABAC формата : Да
Параметр ReFrames формата : 4 кадра
Идентификатор кодека : V_MPEG4/ISO/AVC
Продолжительность : 1 ч. 20 м.
Битрейт : 7089 Кбит/сек
Ширина : 1920 пикселей
Высота : 1080 пикселей
Соотношение сторон : 16:9
Режим частоты кадров : Постоянный
Частота кадров : 23,976 кадра/сек
Цветовое пространство : YUV
Субдискретизация насыщенности : 4:2:0
Битовая глубина : 8 бит
Тип развёртки : Прогрессивная
Бит/(Пиксели*Кадры) : 0.143
Размер потока : 3,92 Гбайт (90%)
Библиотека кодирования : x264 core 129 r2230 1cffe9f
Настройки программы : cabac=1 / ref=4 / deblock=1:0:0 / analyse=0x3:0x133 / me=umh / subme=10 / psy=1 / psy_rd=1.00:0.10 / mixed_ref=1 / me_range=32 / chroma_me=1 / trellis=2 / 8x8dct=1 / cqm=0 / deadzone=21,11 / fast_pskip=0 / chroma_qp_offset=-3 / threads=6 / lookahead_threads=1 / sliced_threads=0 / nr=0 / decimate=1 / interlaced=0 / bluray_compat=0 / constrained_intra=0 / bframes=3 / b_pyramid=2 / b_adapt=2 / b_bias=0 / direct=3 / weightb=1 / open_gop=0 / weightp=2 / keyint=240 / keyint_min=23 / scenecut=40 / intra_refresh=0 / rc_lookahead=66 / rc=2pass / mbtree=1 / bitrate=7089 / ratetol=1.0 / qcomp=0.62 / qpmin=0 / qpmax=69 / qpstep=4 / cplxblur=20.0 / qblur=0.5 / ip_ratio=1.40 / aq=1:1.00
Язык : English
Default : Да
Forced : Нет

Аудио
Идентификатор : 2
Формат : AC-3
Формат/Информация : Audio Coding 3
Расширение режима : CM (complete main)
Параметр Endianness формата : Big
Идентификатор кодека : A_AC3
Продолжительность : 1 ч. 20 м.
Вид битрейта : Постоянный
Битрейт : 640 Кбит/сек
Каналы : 6 каналов
Расположение каналов : Front: L C R, Side: L R, LFE
Частота : 48,0 КГц
Битовая глубина : 16 бит
Метод сжатия : С потерями
Размер потока : 370 Мбайт (8%)
Заголовок : Дубляж
Язык : Russian
Default : Да
Forced : Нет

Текст
Идентификатор : 3
Формат : UTF-8
Идентификатор кодека : S_TEXT/UTF8
Идентификатор кодека/Информация : UTF-8 Plain Text
Язык : English
Default : Нет
Forced : Нет

Меню
00:00:00.000 : :Chapter 1
00:05:24.652 : :Chapter 2
00:10:35.478 : :Chapter 3
00:15:58.357 : :Chapter 4
00:20:48.125 : :Chapter 5
00:25:26.451 : :Chapter 6
00:30:35.852 : :Chapter 7
00:35:54.952 : :Chapter 8
00:40:45.587 : :Chapter 9
00:45:27.652 : :Chapter 10
00:50:52.625 : :Chapter 11
00:55:15.364 : :Chapter 12
01:00:36.852 : :Chapter 14
01:05:32.752 : :Chapter 15
01:10:48.362 : :Chapter 16
01:15:24.625 : :Chapter 17



   Похожие торренты   Торрент   Размер 
В этой теме нет новых непрочитанных сообщений. Мухнём на Луну / Fly Me to the Moon (2008) BDRip от HELLYWOOD

22 | 4

1.45 ГБ

В этой теме нет новых непрочитанных сообщений. Мухнем на луну / Fly me to the moon (2008) DVD5 | 3D-Video

1 | 2

3.78 ГБ

В этой теме нет новых непрочитанных сообщений. Блэки летит на Луну / Black to the Moon (2013) BDRip 1080p от Ash61 | 3D-Video | halfOU

87 | 28

2.9 ГБ

В этой теме нет новых непрочитанных сообщений. Блэки летит на Луну / Black to the Moon 2D, 3D (2013) Blu-Ray 1080p от BLUEBIRD | D | Лицензия

31 | 27

16.62 ГБ

В этой теме нет новых непрочитанных сообщений. Блэки летит на Луну / Black to the Moon 3D (2013) BDRemux 1080p от ExKinoRay | D | Лицензия

35 | 23

10.93 ГБ

В этой теме нет новых непрочитанных сообщений. Блэки летит на Луну / Black to the Moon 3D (2013) BDRemux 1080p от ExKinoRay | D | Лицензия

3 | 2

11.29 ГБ

В этой теме нет новых непрочитанных сообщений. Блэки летит на Луну / Black to the Moon 3D (2013) BDRip-AVC | iPhone | D

23 | 6

756.75 МБ




Вы не можете начинать темы
Вы не можете отвечать на сообщения
Вы не можете редактировать свои сообщения
Вы не можете удалять свои сообщения
Вы не можете добавлять вложения

Перейти:  
Для Мосгорсуда, Роскомнадзора и рекламодателей: mosgorsud-torrent[собачка]yandex.ru
 Вход
ppkBB3cker v.2 © 2008-2014 @ PPK
[ Time : 0.036s | 14 Queries | GZIP : Off ]

Торрент трекер RUTOR.IN, Не можете зайти на rutor.org? Какой новый адрес рутор? Какое зеркало рутор? Не работает rutor.org и зеркала? Тогда наш торрент специально для вас. Rutor.in неофициальное зеркало rutor. В случае если у Вас заблокирован rutor или вдруг Вы не можете на него зайти, то Вы без труда сможете скачать бесплатно и без рекламы последние новинки кино, игр, сериалов и прочего у нас, на Rutor.in. Не нужно использовать прокси, чтобы зайти на рутор, достаточно воспользоваться нашим ресурсом. Все новые фильмы, игры, сериалы, книги и музыка за 2013 и 2014 годы через торрент бесплатно. Скачивайте фильмы в хорошем качестве, игры для пк, xbox, playstation без регистрации. У нас вы найдете новые Зарубежные сериалы и Русские сериалы 2013, 2014, 2015 годов. Оставайтесь с нами, качайте любимые фильмы, игры, сериалы, книги и музыку.