img image001 image001 image001 image001 image001 image001 image001 image001 image001 image001 image001 image001 image001 image001 image001

Planets Sun Sun Sun
Статистика раздачи
Автор: Снежана | Размер: 17.29 ГБ | Добавлен: 27 июл 2013
Раздают: 87    Качают: 110
Скачать торрент
Скачать торрент
Описание торрента

СообщениеДобавлено: 27 июл 2013 

#77


Жанр: мультфильм, фэнтези, приключения, семейный
Год выпуска: 2006/2009/2010
Продолжительность: 01:43:42 | 01:33:52 | 01:41:09
Режиссёр: Люк Бессон



Информация о фильме
Название: Артур и минипуты
Оригинальное название: Arthur et les Minimoys
Год выхода: 2006
Жанр: мультфильм, фэнтези, приключения, семейный
Режиссер: Люк Бессон
В ролях: Фредди Хаймор, Миа Фэрроу, Пенни Бальфур, Даг Рэнд, Адам ЛеФевр, Сауль Джефкотт, Кристиан Эриксон, Эрик Балье, Роберт Уильям Брэдфорд, Джерри Ди Джакомо, Винсент Менди, Тони Десканвелль

О фильме:
На долю десятилетнего Артура выпало непростое испытание: дом его бабушки хотят отнять за долги, и никто не поможет ему справиться с этой напастью. Быть может, ключ к решению проблемы кроется в сокровищах его дедушки, которые спрятаны где-то в стране минипутов, сказочных крохотных существ.
В стране минипутов Артур знакомится с принцессой Селенией и ее братом Барахлюшем. Их ждет множество захватывающих приключений, опасностей и интриг на пути, который ведет их в запретный город Некрополис. Там детской компании предстоит пережить недетский ужас в лице Ужасного Урдалака…



Выпущено: Франция
Продолжительность: 01:43:42
Перевод: Дублированный + Английский

Файл
Кодек: x264
Качество: BDRip 1080p
Видео: 1920x816, 6682 Kbps, 24.000 fps
Аудио #1: AC-3, 6 ch, 640 kbps (Rus)
Аудио #2: AC-3, 6 ch, 640 kbps (Eng)
Субтитры: русские, английские

Общее
Уникальный идентификатор : 238529131642485850193284897451528539751 (0xB3730A2B585D38C98F5D777FFA69CE67)
Полное имя : Артур и минипуты.2006.BDRip.1080.Rus.Eng.mkv
Формат : Matroska
Версия формата : Version 2
Размер файла : 5,77 Гбайт
Продолжительность : 1 ч. 43 м.
Общий поток : 7959 Кбит/сек
Название фильма : Артур и минипуты.2006
Дата кодирования : UTC 2013-01-13 16:57:21
Программа кодирования : mkvmerge v5.8.0 ('No Sleep / Pillow') built on Sep 2 2012 15:37:04
Библиотека кодирования : libebml v1.2.3 + libmatroska v1.3.0

Видео
Идентификатор : 1
Формат : AVC
Формат/Информация : Advanced Video Codec
Профиль формата : High@L4.1
Параметр CABAC формата : Да
Параметр ReFrames формата : 5 кадров
Идентификатор кодека : V_MPEG4/ISO/AVC
Продолжительность : 1 ч. 43 м.
Битрейт : 6682 Кбит/сек
Ширина : 1920 пикселей
Высота : 816 пикселей
Соотношение сторон : 2,35:1
Режим частоты кадров : Постоянный
Частота кадров : 24,000 кадра/сек
Цветовое пространство : YUV
Субдискретизация насыщенности : 4:2:0
Битовая глубина : 8 бит
Тип развёртки : Прогрессивная
Бит/(Пиксели*Кадры) : 0.178
Размер потока : 4,72 Гбайт (82%)
Заголовок : Rip by Boriy
Библиотека кодирования : x264 core 129 r2230 1cffe9f
Настройки программы : cabac=1 / ref=5 / deblock=1:0:0 / analyse=0x3:0x113 / me=umh / subme=10 / psy=1 / psy_rd=1.00:0.10 / mixed_ref=1 / me_range=32 / chroma_me=1 / trellis=2 / 8x8dct=1 / cqm=0 / deadzone=21,11 / fast_pskip=0 / chroma_qp_offset=-2 / threads=12 / lookahead_threads=2 / sliced_threads=0 / nr=0 / decimate=0 / interlaced=0 / bluray_compat=0 / constrained_intra=0 / bframes=5 / b_pyramid=2 / b_adapt=2 / b_bias=0 / direct=3 / weightb=1 / open_gop=0 / weightp=2 / keyint=240 / keyint_min=24 / scenecut=40 / intra_refresh=0 / rc=2pass / mbtree=0 / bitrate=6682 / ratetol=1.0 / qcomp=0.60 / qpmin=0 / qpmax=69 / qpstep=4 / cplxblur=20.0 / qblur=0.5 / ip_ratio=1.40 / pb_ratio=1.30 / aq=1:0.80
Язык : English
Default : Да
Forced : Нет

Аудио #1
Идентификатор : 2
Формат : AC-3
Формат/Информация : Audio Coding 3
Расширение режима : CM (complete main)
Параметр Endianness формата : Big
Идентификатор кодека : A_AC3
Продолжительность : 1 ч. 43 м.
Вид битрейта : Постоянный
Битрейт : 640 Кбит/сек
Каналы : 6 каналов
Расположение каналов : Front: L C R, Side: L R, LFE
Частота : 48,0 КГц
Битовая глубина : 16 бит
Метод сжатия : С потерями
Размер потока : 475 Мбайт (8%)
Заголовок : Дубляж
Язык : Russian
Default : Да
Forced : Нет

Аудио #2
Идентификатор : 3
Формат : AC-3
Формат/Информация : Audio Coding 3
Расширение режима : CM (complete main)
Параметр Endianness формата : Big
Идентификатор кодека : A_AC3
Продолжительность : 1 ч. 43 м.
Вид битрейта : Постоянный
Битрейт : 640 Кбит/сек
Каналы : 6 каналов
Расположение каналов : Front: L C R, Side: L R, LFE
Частота : 48,0 КГц
Битовая глубина : 16 бит
Метод сжатия : С потерями
Размер потока : 475 Мбайт (8%)
Язык : English
Default : Нет
Forced : Нет

Текст #1
Идентификатор : 4
Формат : UTF-8
Идентификатор кодека : S_TEXT/UTF8
Идентификатор кодека/Информация : UTF-8 Plain Text
Язык : Russian
Default : Нет
Forced : Нет

Текст #2
Идентификатор : 5
Формат : UTF-8
Идентификатор кодека : S_TEXT/UTF8
Идентификатор кодека/Информация : UTF-8 Plain Text
Язык : English
Default : Нет
Forced : Нет

Меню
00:00:00.000 : :Chapter 1
00:05:47.333 : :Chapter 2
00:11:06.250 : :Chapter 3
00:18:29.625 : :Chapter 4
00:23:08.500 : :Chapter 5
00:29:49.500 : :Chapter 6
00:34:36.833 : :Chapter 7
00:40:17.625 : :Chapter 8
00:43:49.333 : :Chapter 9
00:48:11.458 : :Chapter 10
00:54:26.541 : :Chapter 11
00:58:27.000 : :Chapter 12
01:07:59.416 : :Chapter 13
01:18:37.333 : :Chapter 14
01:26:58.250 : :Chapter 15
01:36:07.750 : :Chapter 16
01:43:42.250 : :Chapter 17


Информация о фильме
Название: Артур и месть Урдалака
Оригинальное название: Arthur et la vengeance de Maltazard
Год выхода: 2009
Жанр: мультфильм, фэнтези, приключения, семейный
Режиссер: Люк Бессон
В ролях: Селена Гомес, Стэйси Фергюсон, Фредди Хаймор, Джимми Фэллон, Миа Фэрроу, Снуп Догг, Уилл Ай Эм, Аса Баттерфилд, Роберт Стэнтон, Логан Миллер
О фильме:
Артур в восторге, потому что этой ночью заканчивается десятый лунный цикл, и он, наконец, сможет вернуться в страну минипутов, чтобы воссоединиться с Селенией. В деревне минипуты приготовили в его честь роскошный банкет, а маленькая принцесса облачилась в платье из лепестков роз. Но отец Артура именно в этот долгожданный день объявляет, что их каникулы у бабушки заканчиваются. Они уже собираются уезжать, как вдруг паук кладёт в ладонь Артуру рисунок, на котором написано слово S.O.S. Сомнений нет — Селении угрожает опасность!
Артур, не задумываясь, летит к ней на выручку. Даже если столкнуться с войсками Креба, нового тирана Семи Королевств, спасти Бархлюша, сражаться с крысами, лягушками и волосатыми пауками… Лишь для того, чтобы, попав в деревушку минипутов, узнать, что они вовсе не просили его о помощи! Но кто же мог приготовить такую изобретательную ловушку нашему юному герою?



Выпущено: Франция
Продолжительность: 01:33:52
Перевод: Дублированный + Английский

Файл
Кодек: x264
Качество: BDRip 1080p
Видео: 1920x816, 7516 Kbps, 23,976 fps
Аудио #1: AC-3, 6 ch, 640 kbps (Rus)
Аудио #2: AC-3, 6 ch, 640 kbps (Eng)
Субтитры: нет

Общее
Уникальный идентификатор : 241035707269473512934260831434217627655 (0xB555C9E3A28B5DB8A991696BAEA42007)
Полное имя : Артур и месть Урдалака.2009.BDRip.1080p.Rus.Eng.mkv
Формат : Matroska
Версия формата : Version 2
Размер файла : 5,76 Гбайт
Продолжительность : 1 ч. 33 м.
Общий поток : 8782 Кбит/сек
Название фильма : Артур и месть Урдалака.2009
Дата кодирования : UTC 2013-01-14 16:26:35
Программа кодирования : mkvmerge v5.8.0 ('No Sleep / Pillow') built on Sep 2 2012 15:37:04
Библиотека кодирования : libebml v1.2.3 + libmatroska v1.3.0

Видео
Идентификатор : 1
Формат : AVC
Формат/Информация : Advanced Video Codec
Профиль формата : High@L4.1
Параметр CABAC формата : Да
Параметр ReFrames формата : 5 кадров
Идентификатор кодека : V_MPEG4/ISO/AVC
Продолжительность : 1 ч. 33 м.
Битрейт : 7516 Кбит/сек
Ширина : 1920 пикселей
Высота : 816 пикселей
Соотношение сторон : 2,35:1
Режим частоты кадров : Постоянный
Частота кадров : 23,976 кадра/сек
Цветовое пространство : YUV
Субдискретизация насыщенности : 4:2:0
Битовая глубина : 8 бит
Тип развёртки : Прогрессивная
Бит/(Пиксели*Кадры) : 0.200
Размер потока : 4,80 Гбайт (83%)
Заголовок : Rip by Boriy
Библиотека кодирования : x264 core 129 r2230 1cffe9f
Настройки программы : cabac=1 / ref=5 / deblock=1:0:0 / analyse=0x3:0x113 / me=umh / subme=10 / psy=1 / psy_rd=1.00:0.10 / mixed_ref=1 / me_range=32 / chroma_me=1 / trellis=2 / 8x8dct=1 / cqm=0 / deadzone=21,11 / fast_pskip=0 / chroma_qp_offset=-2 / threads=12 / lookahead_threads=2 / sliced_threads=0 / nr=0 / decimate=0 / interlaced=0 / bluray_compat=0 / constrained_intra=0 / bframes=5 / b_pyramid=2 / b_adapt=2 / b_bias=0 / direct=3 / weightb=1 / open_gop=0 / weightp=2 / keyint=240 / keyint_min=23 / scenecut=40 / intra_refresh=0 / rc=2pass / mbtree=0 / bitrate=7516 / ratetol=1.0 / qcomp=0.60 / qpmin=0 / qpmax=69 / qpstep=4 / cplxblur=20.0 / qblur=0.5 / ip_ratio=1.40 / pb_ratio=1.30 / aq=1:0.80
Язык : English
Default : Да
Forced : Нет

Аудио #1
Идентификатор : 2
Формат : AC-3
Формат/Информация : Audio Coding 3
Расширение режима : CM (complete main)
Параметр Endianness формата : Big
Идентификатор кодека : A_AC3
Продолжительность : 1 ч. 33 м.
Вид битрейта : Постоянный
Битрейт : 640 Кбит/сек
Каналы : 6 каналов
Расположение каналов : Front: L C R, Side: L R, LFE
Частота : 48,0 КГц
Битовая глубина : 16 бит
Метод сжатия : С потерями
Размер потока : 430 Мбайт (7%)
Заголовок : Дубляж
Язык : Russian
Default : Да
Forced : Нет

Аудио #2
Идентификатор : 3
Формат : AC-3
Формат/Информация : Audio Coding 3
Расширение режима : CM (complete main)
Параметр Endianness формата : Big
Идентификатор кодека : A_AC3
Продолжительность : 1 ч. 33 м.
Вид битрейта : Постоянный
Битрейт : 640 Кбит/сек
Каналы : 6 каналов
Расположение каналов : Front: L C R, Side: L R, LFE
Частота : 48,0 КГц
Битовая глубина : 16 бит
Метод сжатия : С потерями
Размер потока : 430 Мбайт (7%)
Язык : English
Default : Нет
Forced : Нет

Меню
00:00:00.000 : :Chapter 1
00:05:31.456 : :Chapter 2
00:07:23.359 : :Chapter 3
00:13:57.294 : :Chapter 4
00:20:31.688 : :Chapter 5
00:27:24.351 : :Chapter 6
00:30:54.060 : :Chapter 7
00:40:21.293 : :Chapter 8
00:45:12.543 : :Chapter 9
00:54:31.726 : :Chapter 10
01:01:02.200 : :Chapter 11
01:06:55.970 : :Chapter 12
01:12:05.612 : :Chapter 13
01:18:50.976 : :Chapter 14
01:22:09.925 : :Chapter 15
01:26:59.088 : :Chapter 16



Информация о фильме
Название: Артур и война двух миров
Оригинальное название: Arthur et la guerre des deux mondes
Год выхода: 2010
Жанр: мультфильм, фэнтези, приключения, семейный
Режиссер: Люк Бессон
В ролях: Фредди Хаймор, Миа Фэрроу, Роберт Стэнтон, Пенни Бальфур, Милен Фармер, Мишель Дюшоссуа, Майк Пауэрс, Жан-Поль Рув, Фредерик Бел, Жерар Дармон

О фильме:
Какие дьявольские планы собирается осуществить Урдалак, чтобы завоевать новый мир, в который он переместился обманным путем? Как Артур, оставшийся в мире минипутов, сможет победить жестокого Ужасного У? Чтобы сохранить любовь прекрасной принцессы Селении, Артур готов вступить в бой против Урдалака как в мире минипутов, так и в большом реальном мире…



Выпущено: Франция
Продолжительность: 01:41:09
Перевод: Дублированный + Английский

Файл
Кодек: x264
Качество: BDRip 1080p
Видео: 1920x816, 6883 Kbps, 23,976 fps
Аудио #1: AC-3, 6 ch, 640 kbps (Rus)
Аудио #2: AC-3, 6 ch, 640 kbps (Eng)
Субтитры: русские

Общее
Уникальный идентификатор : 192145709104591626499947142425161145945 (0x908DEAE04C1BF7E68085F2D0559A9E59)
Полное имя : Артур и война двух миров.2010.BDRip.1080p.Rus.Eng.mkv
Формат : Matroska
Версия формата : Version 2
Размер файла : 5,76 Гбайт
Продолжительность : 1 ч. 41 м.
Общий поток : 8158 Кбит/сек
Название фильма : Артур и война двух миров.2010
Дата кодирования : UTC 2013-01-14 18:01:59
Программа кодирования : mkvmerge v5.8.0 ('No Sleep / Pillow') built on Sep 2 2012 15:37:04
Библиотека кодирования : libebml v1.2.3 + libmatroska v1.3.0

Видео
Идентификатор : 1
Формат : AVC
Формат/Информация : Advanced Video Codec
Профиль формата : High@L4.1
Параметр CABAC формата : Да
Параметр ReFrames формата : 5 кадров
Идентификатор кодека : V_MPEG4/ISO/AVC
Продолжительность : 1 ч. 41 м.
Битрейт : 6883 Кбит/сек
Ширина : 1920 пикселей
Высота : 816 пикселей
Соотношение сторон : 2,35:1
Режим частоты кадров : Постоянный
Частота кадров : 23,976 кадра/сек
Цветовое пространство : YUV
Субдискретизация насыщенности : 4:2:0
Битовая глубина : 8 бит
Тип развёртки : Прогрессивная
Бит/(Пиксели*Кадры) : 0.183
Размер потока : 4,74 Гбайт (82%)
Заголовок : Rip by Boriy
Библиотека кодирования : x264 core 129 r2230 1cffe9f
Настройки программы : cabac=1 / ref=5 / deblock=1:0:0 / analyse=0x3:0x113 / me=umh / subme=10 / psy=1 / psy_rd=1.00:0.10 / mixed_ref=1 / me_range=32 / chroma_me=1 / trellis=2 / 8x8dct=1 / cqm=0 / deadzone=21,11 / fast_pskip=0 / chroma_qp_offset=-2 / threads=12 / lookahead_threads=2 / sliced_threads=0 / nr=0 / decimate=0 / interlaced=0 / bluray_compat=0 / constrained_intra=0 / bframes=5 / b_pyramid=2 / b_adapt=2 / b_bias=0 / direct=3 / weightb=1 / open_gop=0 / weightp=2 / keyint=240 / keyint_min=23 / scenecut=40 / intra_refresh=0 / rc=2pass / mbtree=0 / bitrate=6883 / ratetol=1.0 / qcomp=0.60 / qpmin=0 / qpmax=69 / qpstep=4 / cplxblur=20.0 / qblur=0.5 / ip_ratio=1.40 / pb_ratio=1.30 / aq=1:0.80
Язык : English
Default : Да
Forced : Нет

Аудио #1
Идентификатор : 2
Формат : AC-3
Формат/Информация : Audio Coding 3
Расширение режима : CM (complete main)
Параметр Endianness формата : Big
Идентификатор кодека : A_AC3
Продолжительность : 1 ч. 41 м.
Вид битрейта : Постоянный
Битрейт : 640 Кбит/сек
Каналы : 6 каналов
Расположение каналов : Front: L C R, Side: L R, LFE
Частота : 48,0 КГц
Битовая глубина : 16 бит
Метод сжатия : С потерями
Размер потока : 463 Мбайт (8%)
Заголовок : Дубляж
Язык : Russian
Default : Да
Forced : Нет

Аудио #2
Идентификатор : 3
Формат : AC-3
Формат/Информация : Audio Coding 3
Расширение режима : CM (complete main)
Параметр Endianness формата : Big
Идентификатор кодека : A_AC3
Продолжительность : 1 ч. 41 м.
Вид битрейта : Постоянный
Битрейт : 640 Кбит/сек
Каналы : 6 каналов
Расположение каналов : Front: L C R, Side: L R, LFE
Частота : 48,0 КГц
Битовая глубина : 16 бит
Метод сжатия : С потерями
Размер потока : 463 Мбайт (8%)
Язык : English
Default : Нет
Forced : Нет

Текст
Идентификатор : 4
Формат : UTF-8
Идентификатор кодека : S_TEXT/UTF8
Идентификатор кодека/Информация : UTF-8 Plain Text
Язык : Russian
Default : Нет
Forced : Нет

Меню
00:00:00.000 : :Chapter 1
00:04:45.576 : :Chapter 2
00:14:47.303 : :Chapter 3
00:17:16.994 : :Chapter 4
00:23:27.823 : :Chapter 5
00:29:56.544 : :Chapter 6
00:35:31.462 : :Chapter 7
00:45:16.964 : :Chapter 8
00:50:12.676 : :Chapter 9
00:57:52.302 : :Chapter 10
01:03:02.236 : :Chapter 11
01:07:47.855 : :Chapter 12
01:14:03.397 : :Chapter 13
01:20:15.018 : :Chapter 14
01:28:06.864 : :Chapter 15
01:32:54.986 : :Chapter 16
01:41:08.812 : :Chapter 17



   Похожие торренты   Торрент   Размер 
В этой теме нет новых непрочитанных сообщений. Артур и минипуты: Трилогия / Arthur et les Minimoys (2006-2010) BDRip-AVC от ExKinoRay | D

663 | 72

7.74 ГБ

В этой теме нет новых непрочитанных сообщений. Артур и минипуты / Arthur and the Invisibles / Arthur et les Minimoys (2006) BDRip от HQCLUB

566 | 36

2.18 ГБ

В этой теме нет новых непрочитанных сообщений. Артур и минипуты / Arthur and the Invisibles / Arthur et les Minimoys (2006) BDRip от HQCLUB

2 | 3

2.97 ГБ

В этой теме нет новых непрочитанных сообщений. Артур и минипуты / Arthur et les Minimoys / Arthur and the Minimoys (2007) BDRip от HQ-ViDEO

322 | 13

1.46 ГБ

В этой теме нет новых непрочитанных сообщений. Артур и минипуты / Arthur et les Minimoys (2006) HDRip

41 | 7

2.09 ГБ

В этой теме нет новых непрочитанных сообщений. Артур и минипуты / Arthur et les Minimoys (2006) DVDRip от ExKinoRay

406 | 23

1.37 ГБ

В этой теме нет новых непрочитанных сообщений. Артур и война двух миров / Arthur 3: The War of the Two Worlds / Arthur et la guerre des deux mondes (2010) BDRip от HQCLUB

102 | 11

2.18 ГБ




Вы не можете начинать темы
Вы не можете отвечать на сообщения
Вы не можете редактировать свои сообщения
Вы не можете удалять свои сообщения
Вы не можете добавлять вложения

Перейти:  
Для Мосгорсуда, Роскомнадзора и рекламодателей: mosgorsud-torrent[собачка]yandex.ru
 Вход
ppkBB3cker v.2 © 2008-2014 @ PPK
[ Time : 0.037s | 14 Queries | GZIP : Off ]
CGP output time : 0.031s | 7 Queries | GZIP : Off

Торрент трекер RUTOR.IN, Не можете зайти на rutor.org? Какой новый адрес рутор? Какое зеркало рутор? Не работает rutor.org и зеркала? Тогда наш торрент специально для вас. Rutor.in неофициальное зеркало rutor. В случае если у Вас заблокирован rutor или вдруг Вы не можете на него зайти, то Вы без труда сможете скачать бесплатно и без рекламы последние новинки кино, игр, сериалов и прочего у нас, на Rutor.in. Не нужно использовать прокси, чтобы зайти на рутор, достаточно воспользоваться нашим ресурсом. Все новые фильмы, игры, сериалы, книги и музыка за 2013 и 2014 годы через торрент бесплатно. Скачивайте фильмы в хорошем качестве, игры для пк, xbox, playstation без регистрации. У нас вы найдете новые Зарубежные сериалы и Русские сериалы 2013, 2014, 2015 годов. Оставайтесь с нами, качайте любимые фильмы, игры, сериалы, книги и музыку.