img image001 image001 image001 image001 image001 image001 image001 image001 image001 image001 image001 image001 image001 image001 image001

Planets Sun Sun Sun
Статистика раздачи
Автор: Снежана | Размер: 4.37 ГБ | Добавлен: 27 июл 2013
Раздают: 15    Качают: 8
Скачать торрент
Скачать торрент
Описание торрента

СообщениеДобавлено: 27 июл 2013 

#77

Информация о фильме
Название: Великий мышиный сыщик
Оригинальное название: The Great Mouse Detective
Год выпуска: 1986
Жанр: мультфильм, мюзикл, детектив, приключения, семейный
Режиссер: Рон Клементс, Барни Мэттинсон, Дэвид Микенер, Джон Маскер
В ролях: Винсент Прайс, Бэрри Ингэм, Вэл Бэттин, Сюзанна Полащек, Кэнди Кандидо, Диана Чесни, Ив Бреннер, Алан Янг, Лори Майн, Шэйни Уоллис



О фильме:
Оливия обращается за помощью к Базилю с Бэйкер-стрит. Она просит найти исчезнувшего отца. Базиль, его друг и соратник доктор Доусон, а также пес Тоби берутся за расследование. Следы ведут к профессору Ратигану, крупному преступнику, которому Базилю и прийдется противостоять...



Страна: США
Студия: Walt Disney Pictures
Продолжительность: 01:14:17
Язык: Дублированный, авторский одноголосый А.Михалев







Файл
Качество: BDRip 1080
Видео: 1920x1072 (16:9), 23.976 fps, 8 004 Kbps
Звук:
Аудио #1: AC-3, 48.0 KHz, 2 ch, 192 Kbps, CBR
Аудио #2: AC-3, 48.0 KHz, 6 ch, 224 Kbps, CBR




Общее
Уникальный идентификатор : 186793013959376552120314214882511900274 (0x8C8706A14B975880AE32B150A7234E72)
Полное имя : D:The Great Mouse Detective 1080-muxed.mkv
Формат : Matroska
Версия формата : Version 2
Размер файла : 4,37 Гбайт
Продолжительность : 1 ч. 14 м.
Общий поток : 8419 Кбит/сек
Дата кодирования : UTC 2012-12-29 22:17:14
Программа кодирования : mkvmerge v5.8.0 ('No Sleep / Pillow') built on Sep 2 2012 15:37:04
Библиотека кодирования : libebml v1.2.3 + libmatroska v1.3.0

Видео
Идентификатор : 1
Формат : AVC
Формат/Информация : Advanced Video Codec
Профиль формата : High@L4.1
Параметр CABAC формата : Да
Параметр ReFrames формата : 4 кадра
Идентификатор кодека : V_MPEG4/ISO/AVC
Продолжительность : 1 ч. 14 м.
Битрейт : 8004 Кбит/сек
Ширина : 1920 пикселей
Высота : 1072 пикселя
Соотношение сторон : 16:9
Режим частоты кадров : Постоянный
Частота кадров : 23,976 кадра/сек
Цветовое пространство : YUV
Субдискретизация насыщенности : 4:2:0
Битовая глубина : 8 бит
Тип развёртки : Прогрессивная
Бит/(Пиксели*Кадры) : 0.162
Размер потока : 4,07 Гбайт (93%)
Библиотека кодирования : x264 core 129 r2230 1cffe9f
Настройки программы : cabac=1 / ref=4 / deblock=1:-1:-1 / analyse=0x3:0x133 / me=umh / subme=10 / psy=1 / psy_rd=0.40:0.00 / mixed_ref=1 / me_range=16 / chroma_me=1 / trellis=2 / 8x8dct=1 / cqm=0 / deadzone=21,11 / fast_pskip=1 / chroma_qp_offset=-2 / threads=9 / lookahead_threads=1 / sliced_threads=0 / nr=0 / decimate=1 / interlaced=0 / bluray_compat=0 / constrained_intra=0 / bframes=5 / b_pyramid=2 / b_adapt=2 / b_bias=0 / direct=1 / weightb=1 / open_gop=0 / weightp=2 / keyint=240 / keyint_min=23 / scenecut=40 / intra_refresh=0 / rc_lookahead=60 / rc=2pass / mbtree=1 / bitrate=8004 / ratetol=1.0 / qcomp=0.60 / qpmin=0 / qpmax=69 / qpstep=4 / cplxblur=20.0 / qblur=0.5 / ip_ratio=1.40 / aq=1:0.60
Язык : English
Default : Да
Forced : Нет

Аудио #1
Идентификатор : 2
Формат : AC-3
Формат/Информация : Audio Coding 3
Расширение режима : CM (complete main)
Параметр Endianness формата : Big
Идентификатор кодека : A_AC3
Продолжительность : 1 ч. 14 м.
Вид битрейта : Постоянный
Битрейт : 192 Кбит/сек
Каналы : 2 канала
Расположение каналов : Front: L R
Частота : 48,0 КГц
Битовая глубина : 16 бит
Метод сжатия : С потерями
Размер потока : 102 Мбайт (2%)
Default : Да
Forced : Нет

Аудио #2
Идентификатор : 3
Формат : AC-3
Формат/Информация : Audio Coding 3
Расширение режима : CM (complete main)
Параметр Endianness формата : Big
Идентификатор кодека : A_AC3
Продолжительность : 1 ч. 14 м.
Вид битрейта : Постоянный
Битрейт : 224 Кбит/сек
Каналы : 6 каналов
Расположение каналов : Front: L C R, Side: L R, LFE
Частота : 48,0 КГц
Битовая глубина : 16 бит
Метод сжатия : С потерями
Размер потока : 119 Мбайт (3%)
Default : Нет
Forced : Нет



Релиз от: &





   Похожие торренты   Торрент   Размер 
В этой теме нет новых непрочитанных сообщений. Великий мышиный сыщик / The Great Mouse Detective (1986) BDRip 720 от Torrent-Xzona

7 | 3

2.19 ГБ

В этой теме нет новых непрочитанных сообщений. Великий мышиный сыщик / The Great Mouse Detective (1986) BDRip от HQCLUB

213 | 5

1.45 ГБ

В этой теме нет новых непрочитанных сообщений. Великий мышиный сыщик / The Great Mouse Detective (1986) BDRip-AVC от potroks | D, P, A

8 | 4

2.18 ГБ

В этой теме нет новых непрочитанных сообщений. Великий мышиный сыщик / The Great Mouse Detective (1986) DVD5

0 | 4

4.26 ГБ

В этой теме нет новых непрочитанных сообщений. Великий мышиный сыщик / The Great Mouse Detective (1986) BDRip 720p от Leonardo and Scarabey

55 | 20

2.97 ГБ

В этой теме нет новых непрочитанных сообщений. Великий мышиный сыщик / The Great Mouse Detective (1986) HDRip от Kaztorrents | D

12 | 1

746.92 МБ

В этой теме нет новых непрочитанных сообщений. Великий мышиный сыщик / The Great Mouse Detective (1986) DVDRip l КПК от Киномагия

8 | 4

300.73 МБ




Вы не можете начинать темы
Вы не можете отвечать на сообщения
Вы не можете редактировать свои сообщения
Вы не можете удалять свои сообщения
Вы не можете добавлять вложения

Перейти:  
Для Мосгорсуда, Роскомнадзора и рекламодателей: mosgorsud-torrent[собачка]yandex.ru
 Вход
ppkBB3cker v.2 © 2008-2014 @ PPK
[ Time : 0.048s | 15 Queries | GZIP : Off ]

cron