img image001 image001 image001 image001 image001 image001 image001 image001 image001 image001 image001 image001 image001 image001 image001

Planets Sun Sun Sun
Статистика раздачи
Автор: Снежана | Размер: 725.45 МБ | Добавлен: 27 июл 2013
Раздают: 76    Качают: 6
Скачать торрент
Скачать торрент
Описание торрента

СообщениеДобавлено: 27 июл 2013 

#77
Год выпуска: 2012
Страна: США
Жанр: Мультфильм, комедия, приключения, семейный
Продолжительность: 01:19:23
Перевод: Дубляж, Лицензия
Дополнительно: Обрезаны титры

Режиссер: Стив Мартино, Майк Тёрмайер
Продюссер: Джон С. Донкин, Лори Форте, Карлос Салдана
Сценарий: Майкл Берг, Джейсон Фучс

Мировой рейтинг IMDB 6.70 (37 825)


В ролях: Рэй Романо, Джон Легуизамо, Куин Латифа, Дэнис Лири, Джош Пек, Питер Динклэйдж, Кеке Палмер, Дженнифер Лопез, Ник Фрост, Азиз Ансари, Степан Старчиков, Антон Комолов, Ольга Шелест, Александр Груздев, Илья Бледный

Описание: [des]После приключений под землей прошло семь лет. Случился дрейф континентов. Главные герои мультфильма, отделённые от стада, вынуждены использовать айсберг в качестве плота. Они пересекают океан и попадают в неизвестные им ранее земли с экзотическими животными и пиратами, враждебно настроенными к ним. Скрэту удаётся получить свой жёлудь, но он перемещается в новые для него земли.[/des]

Качество: BDRip-AVC
Формат: MKV
Видео кодек: H.264
Аудио кодек: AC3
Видео: H.264, 720x304 pix, 892 Kbps, 23.976 fps, High 10 L5.1
Аудио: AC3, 48.0 KHz, 384 Kbps, 16 bits









General
Unique ID : 232602409372431872365999369009069821636 (0xAEFD98336D0E4D3E9E6894CD0AB80EC4)
Complete name : K:BDRip-AVCIce Age 4 (2012).mkv
Format : Matroska
Format version : Version 2
File size : 725 MiB
Duration : 1h 19mn
Overall bit rate : 1 278 Kbps
Encoded date : UTC 2012-10-30 19:37:43
Writing application : mkvmerge v5.6.0 ('Kenya Kane') built on May 27 2012 16:44:04
Writing library : libebml v1.2.3 + libmatroska v1.3.0

Video
ID : 1
Format : AVC
Format/Info : Advanced Video Codec
Format profile : High 10 L5.1
Format settings, CABAC : Yes
Format settings, ReFrames : 15 frames
Codec ID : V_MPEG4/ISO/AVC
Duration : 1h 19mn
Bit rate : 892 Kbps
Width : 720 pixels
Height : 304 pixels
Display aspect ratio : 2.35:1
Frame rate mode : Constant
Frame rate : 23.976 fps
Color space : YUV
Chroma subsampling : 4:2:0
Bit depth : 10 bits
Scan type : Progressive
Bits/(Pixel*Frame) : 0.170
Stream size : 493 MiB (68%)
Writing library : x264 core 125 r2200+677M 3a754e7
Encoding settings : cabac=1 / ref=15 / deblock=1:-1:-1 / analyse=0x3:0x133 / me=tesa / subme=11 / psy=1 / fade_compensate=0.00 / psy_rd=1.00:0.15 / mixed_ref=1 / me_range=32 / chroma_me=1 / trellis=2 / 8x8dct=1 / cqm=0 / deadzone=21,11 / fast_pskip=1 / chroma_qp_offset=-3 / threads=4 / lookahead_threads=1 / sliced_threads=0 / nr=0 / decimate=1 / interlaced=0 / bluray_compat=0 / constrained_intra=0 / fgo=0 / bframes=10 / b_pyramid=2 / b_adapt=2 / b_bias=0 / direct=3 / weightb=1 / open_gop=0 / weightp=2 / keyint=230 / keyint_min=23 / scenecut=40 / intra_refresh=0 / rc_lookahead=60 / rc=2pass / mbtree=1 / bitrate=892 / ratetol=1.0 / qcomp=0.60 / qpmin=0 / qpmax=81 / qpstep=4 / cplxblur=20.0 / qblur=0.5 / vbv_maxrate=50000 / vbv_bufsize=50000 / nal_hrd=none / ip_ratio=1.40 / aq=1:1.00
Language : English
Default : Yes
Forced : No
Color primaries : BT.709
Transfer characteristics : BT.709
Matrix coefficients : BT.709

Audio
ID : 2
Format : AC-3
Format/Info : Audio Coding 3
Mode extension : CM (complete main)
Format settings, Endianness : Big
Codec ID : A_AC3
Duration : 1h 19mn
Bit rate mode : Constant
Bit rate : 384 Kbps
Channel(s) : 6 channels
Channel positions : Front: L C R, Side: L R, LFE
Sampling rate : 48.0 KHz
Bit depth : 16 bits
Compression mode : Lossy
Stream size : 218 MiB (30%)
Language : Russian
Default : Yes
Forced : No

Релиз:


Если у вас возникают вопросы типа:
-почему у меня есть звук и отсутствует изображение?
-почему у меня рассыпается картинка?
-почему у меня картинка фонит синевой или зеленью?
-зачем и кому всё это нужно?
и тому подобные, читаем FAQ.

Ссылка на FAQ запрещена правилами.
Поэтому, гуглим на тему спойлера (Что такое 10-ти битное видео (High 10 Profile - Hi10P), и как его смотреть?).





Внимание!
Рип в High 10 Profile, в настоящее время не поддерживается большинством аппаратных проигрывателей.
Для корректного воспроизведения может потребоваться обновление ПО.
Владельцам несовместимого железа просьба не беспокоить, на трекере есть/будут альтернативные релизы.



   Похожие торренты   Торрент   Размер 
В этой теме нет новых непрочитанных сообщений. Ледниковый период 4: Континентальный дрейф / Ice Age: Continental Drift (2012) BDRip 1080p [Hi10P] от FREEISLAND

70 | 8

4.37 ГБ

В этой теме нет новых непрочитанных сообщений. Ледниковый период 4: Континентальный дрейф / Ice Age: Continental Drift (2012) HDRip-AVC [Hi10P]

77 | 16

1.09 ГБ

В этой теме нет новых непрочитанных сообщений. Ледниковый период 4: Континентальный дрейф / Ice Age: Continental Drift (2012) BDRip-AVC | iPad

106 | 10

1.55 ГБ

В этой теме нет новых непрочитанных сообщений. Ледниковый период 4: Континентальный дрейф / Ice Age: Continental Drift (2012) BDRip от HQ-ViDEO

288 | 73

2 ГБ

В этой теме нет новых непрочитанных сообщений. Ледниковый период 4: Континентальный дрейф / Ice Age: Continental Drift (2012) BDRip от HELLYWOOD

528 | 21

1.45 ГБ

В этой теме нет новых непрочитанных сообщений. Ледниковый период 4: Континентальный дрейф / Ice Age: Continental Drift (2012) BDRip-AVC от ExKinoRay

176 | 12

2 ГБ

В этой теме нет новых непрочитанных сообщений. Ледниковый период 4: Континентальный дрейф / Ice Age: Continental Drift (2012) BDRip 1080p

510 | 30

4.37 ГБ




Вы не можете начинать темы
Вы не можете отвечать на сообщения
Вы не можете редактировать свои сообщения
Вы не можете удалять свои сообщения
Вы не можете добавлять вложения

Перейти:  
Для Мосгорсуда, Роскомнадзора и рекламодателей: mosgorsud-torrent[собачка]yandex.ru
 Вход
ppkBB3cker v.2 © 2008-2014 @ PPK
[ Time : 0.032s | 15 Queries | GZIP : Off ]

Торрент трекер RUTOR.IN, Не можете зайти на rutor.org? Какой новый адрес рутор? Какое зеркало рутор? Не работает rutor.org и зеркала? Тогда наш торрент специально для вас. Rutor.in неофициальное зеркало rutor. В случае если у Вас заблокирован rutor или вдруг Вы не можете на него зайти, то Вы без труда сможете скачать бесплатно и без рекламы последние новинки кино, игр, сериалов и прочего у нас, на Rutor.in. Не нужно использовать прокси, чтобы зайти на рутор, достаточно воспользоваться нашим ресурсом. Все новые фильмы, игры, сериалы, книги и музыка за 2013 и 2014 годы через торрент бесплатно. Скачивайте фильмы в хорошем качестве, игры для пк, xbox, playstation без регистрации. У нас вы найдете новые Зарубежные сериалы и Русские сериалы 2013, 2014, 2015 годов. Оставайтесь с нами, качайте любимые фильмы, игры, сериалы, книги и музыку.
cron