img image001 image001 image001 image001 image001 image001 image001 image001 image001 image001 image001 image001 image001 image001 image001

Planets Sun Sun Sun
Статистика раздачи
Автор: Снежана | Размер: 4.37 ГБ | Добавлен: 27 июл 2013
Раздают: 22    Качают: 6
Скачать торрент
Скачать торрент
Описание торрента

СообщениеДобавлено: 27 июл 2013 

#77

Информация о фильме
Название: Спящая красавица
Оригинальное название: Sleeping Beauty
Год выхода: 1959
Жанр: Сказка, Семейный, мультфильм
Режиссер: Клайд Джероними
В ролях: Мэри Коста, Билл Ширли, Элинор Одли, Верна Фелтон, Барбара Ладди, Барбара Джо Аллен, Тейлор Холмс, Билл Томпсон, Bill Amsbery, Candy Candido, Пинто Колвиг, Даль МакКеннон, Марвин Миллер, Thurl Ravenscroft

О фильме:
Однажды давным-давно в волшебной стране у короля и королевы родилась дочь - принцесса Аврора. Всё королевство радовалось этому событию, а три добрые феи - Флора, Фауна и Ясная Лазурь принесли новорождённой волшебные подарки. И только зловещая колдунья Мэлифисент, оскорбленная тем, что её забыли пригласить на торжественный приём, наложила заклятье на ребёнка, - принцесса умрёт от укола веретена, как только ей исполнится 16 лет. Добрая фея пробовала отменить проклятье, но смогла только изменить его - Аврора не умрёт, а будет спать, пока её не разбудит поцелуй истинной любви. Чтобы развеять колдовские чары влюблённому принцу Филлипу предстоит пройти много испытаний и победить саму повелительницу ада в облике чудовищного огнедышащего дракона...



Страна: США, Канада
Продолжительность: 01:15:10
Перевод: Дубляж

Файл
Кодек: H264
Качество: BDRip 1080p
Видео: 1920x752, 7676 Kbps, 23,976 fps
Звук: 48 kHz, AC3, 6c, 640 kbps
Субтитры: Русские, английские

Семпл



Общее
Уникальный идентификатор : 187585734064608206214361665325316184724 (0x8D1FB2BFB12BF74593C697DF6D641A94)
Формат : Matroska
Версия формата : Version 4 / Version 2
Размер файла : 4,37 Гбайт
Продолжительность : 1 ч. 15 м.
Общий поток : 8319 Кбит/сек
Название фильма : Sleeping Beauty (1959) BDRip 1080p от Dimok
Дата кодирования : UTC 2010-02-22 21:41:31
Программа кодирования : mkvmerge v5.9.0 ('On The Loose') built on Dec 9 2012 15:37:01
Библиотека кодирования : libebml v1.3.0 + libmatroska v1.4.0

Видео
Идентификатор : 1
Формат : AVC
Формат/Информация : Advanced Video Codec
Профиль формата : High@L4.1
Параметр CABAC формата : Да
Параметр ReFrames формата : 5 кадров
Идентификатор кодека : V_MPEG4/ISO/AVC
Продолжительность : 1 ч. 15 м.
Битрейт : 7676 Кбит/сек
Ширина : 1920 пикселей
Высота : 752 пикселя
Соотношение сторон : 2,553
Режим частоты кадров : Постоянный
Частота кадров : 23,976 кадра/сек
Цветовое пространство : YUV
Субдискретизация насыщенности : 4:2:0
Битовая глубина : 8 бит
Тип развёртки : Прогрессивная
Бит/(Пиксели*Кадры) : 0.222
Размер потока : 3,94 Гбайт (90%)
Библиотека кодирования : x264 core 129 r2230 1cffe9f
Настройки программы : cabac=1 / ref=5 / deblock=1:0:0 / analyse=0x3:0x133 / me=umh / subme=10 / psy=1 / psy_rd=1.00:0.10 / mixed_ref=1 / me_range=32 / chroma_me=1 / trellis=2 / 8x8dct=1 / cqm=0 / deadzone=21,11 / fast_pskip=0 / chroma_qp_offset=-3 / threads=6 / lookahead_threads=1 / sliced_threads=0 / nr=0 / decimate=1 / interlaced=0 / bluray_compat=0 / constrained_intra=0 / bframes=3 / b_pyramid=2 / b_adapt=2 / b_bias=0 / direct=3 / weightb=1 / open_gop=0 / weightp=2 / keyint=240 / keyint_min=23 / scenecut=40 / intra_refresh=0 / rc_lookahead=60 / rc=2pass / mbtree=1 / bitrate=7676 / ratetol=1.0 / qcomp=0.68 / qpmin=0 / qpmax=69 / qpstep=4 / cplxblur=20.0 / qblur=0.5 / ip_ratio=1.40 / aq=1:1.00
Язык : English
Default : Да
Forced : Нет

Аудио
Идентификатор : 2
Формат : AC-3
Формат/Информация : Audio Coding 3
Расширение режима : CM (complete main)
Параметр Endianness формата : Big
Идентификатор кодека : A_AC3
Продолжительность : 1 ч. 15 м.
Вид битрейта : Постоянный
Битрейт : 640 Кбит/сек
Каналы : 6 каналов
Расположение каналов : Front: L C R, Side: L R, LFE
Частота : 48,0 КГц
Битовая глубина : 16 бит
Метод сжатия : С потерями
Размер потока : 344 Мбайт (8%)
Заголовок : Дубляж
Язык : Russian
Default : Да
Forced : Нет

Текст #1
Идентификатор : 3
Формат : UTF-8
Идентификатор кодека : S_TEXT/UTF8
Идентификатор кодека/Информация : UTF-8 Plain Text
Язык : Russian
Default : Да
Forced : Нет

Текст #2
Идентификатор : 4
Формат : UTF-8
Идентификатор кодека : S_TEXT/UTF8
Идентификатор кодека/Информация : UTF-8 Plain Text
Язык : English
Default : Нет
Forced : Нет

Меню
00:00:00.000 : en:00:00:00.000
00:05:08.183 : en:00:05:08.183
00:10:06.105 : en:00:10:06.105
00:15:08.866 : en:00:15:08.866
00:19:25.081 : en:00:19:25.081
00:27:14.424 : en:00:27:14.424
00:35:49.773 : en:00:35:49.773
00:41:24.273 : en:00:41:24.273
00:51:00.808 : en:00:51:00.808
01:01:51.958 : en:01:01:51.958
01:06:41.122 : en:01:06:41.122
01:08:33.735 : en:01:08:33.735



   Похожие торренты   Торрент   Размер 
В этой теме нет новых непрочитанных сообщений. Спящая красавица / Sleeping Beauty (1959) BDRip 1080p

2 | 3

4.42 ГБ

В этой теме нет новых непрочитанных сообщений. Спящая красавица / Sleeping Beauty (1959) BDRip 1080p от R.G. HD-Films | 60 fps

136 | 38

5.94 ГБ

В этой теме нет новых непрочитанных сообщений. Спящая красавица / Sleeping Beauty (1959) BDRip

42 | 22

699.94 МБ

В этой теме нет новых непрочитанных сообщений. Спящая красавица / Sleeping Beauty (1959) BDRip от HQ-ViDEO

428 | 20

1.46 ГБ

В этой теме нет новых непрочитанных сообщений. Спящая красавица / Sleeping Beauty (1959) BDRip 720p

3 | 2

4.58 ГБ

В этой теме нет новых непрочитанных сообщений. Спящая красавица / Sleeping Beauty (1959) BDRip от HQCLUB

215 | 20

1.93 ГБ

В этой теме нет новых непрочитанных сообщений. Спящая красавица / Sleeping Beauty (1959) BDRip от HQCLUB | ReRip

586 | 20

1.45 ГБ




Вы не можете начинать темы
Вы не можете отвечать на сообщения
Вы не можете редактировать свои сообщения
Вы не можете удалять свои сообщения
Вы не можете добавлять вложения

Перейти:  
Для Мосгорсуда, Роскомнадзора и рекламодателей: mosgorsud-torrent[собачка]yandex.ru
 Вход
ppkBB3cker v.2 © 2008-2014 @ PPK
[ Time : 0.021s | 16 Queries | GZIP : On ]

Торрент трекер RUTOR.IN, Не можете зайти на rutor.org? Какой новый адрес рутор? Какое зеркало рутор? Не работает rutor.org и зеркала? Тогда наш торрент специально для вас. Rutor.in неофициальное зеркало rutor. В случае если у Вас заблокирован rutor или вдруг Вы не можете на него зайти, то Вы без труда сможете скачать бесплатно и без рекламы последние новинки кино, игр, сериалов и прочего у нас, на Rutor.in. Не нужно использовать прокси, чтобы зайти на рутор, достаточно воспользоваться нашим ресурсом. Все новые фильмы, игры, сериалы, книги и музыка за 2013 и 2014 годы через торрент бесплатно. Скачивайте фильмы в хорошем качестве, игры для пк, xbox, playstation без регистрации. У нас вы найдете новые Зарубежные сериалы и Русские сериалы 2013, 2014, 2015 годов. Оставайтесь с нами, качайте любимые фильмы, игры, сериалы, книги и музыку.