img image001 image001 image001 image001 image001 image001 image001 image001 image001 image001 image001 image001 image001 image001 image001

Planets Sun Sun Sun
Статистика раздачи
Автор: Снежана | Размер: 698.72 МБ | Добавлен: 27 июл 2013
Раздают: 34    Качают: 4
Скачать торрент
Скачать торрент
Описание торрента

СообщениеДобавлено: 27 июл 2013 

Три богатыря на дальних берегах
(2012)
DVDRip-AVC [Hi10P] от FREEISLAND




Жанр: мультфильм, комедия

Режиссер: Константин Феоктистов

Роли озвучивали:
Дмитрий Быковский-Ромашов, Валерий Соловьев, Олег Куликович, Сергей Маковецкий, Дмитрий Высоцкий, Фёдор Бондарчук, Елизавета Боярская, Мария Цветкова-Овсянникова, Елена Шульман, Лия Медведева...

Описание:
На этот раз Алеша Попович, Добрыня Никитич и Илья Муромец, благодаря козням коварной Бабы Яги, оказываются за семью морями на острове, на котором живут туземцы и страшный Гомума. В их отсутствие купец Колыван решают вместе с Бабой-Ягой захватить царство и забрать власть у князя Киевского. На помощь незадачливому правителю приходит конь Юлий, а также жены богатырей и их многочисленные родственники. Словом, богатырей и зрителей ждут приключения на дальних берегах, обыкновенные и невероятные...



Страна: Россия
Выпущено: Кинокомпания CTB, Анимационная студия Мельница
Продолжительность: 1 ч. 8 м. 22 с.
Перевод: не требуется
Оригинальная разбивка на главы: сохранена

Внимание!

Рип в High 10 Profile, в настоящее время не поддерживается большинством аппаратных проигрывателей.
Для корректного воспроизведения может потребоваться обновление ПО.
Владельцам несовместимого железа просьба не беспокоить, на трекере есть альтернативные релизы.

Качество: DVDRip-AVC Hi10P (SSIM: 0.9914343)
Исходник: DVD5
Контейнер: MKV
Видео кодек: x264 High10@L4.0
Аудио кодек: AC-3
Видео: AVC at 1235 Кбит/сек, 720 x 576 @ 1024 x 576 (1.778) at 25.000 fps
Аудио: AC-3 at 192 Кбит/сек, 2 канала, 48,0 КГц


Общее
Уникальный идентификатор : 229992209754479985334848252832005065223 (0xAD06E36C7DBF2E56AD590680A4798A07)
Полное имя : Три богатыря на дальних берегах (2012) DVDRip-Hi10P by_F.HD.mkv
Формат : Matroska
Версия формата : Version 2
Размер файла : 699 Мбайт
Продолжительность : 1 ч. 8 м.
Общий поток : 1429 Кбит/сек
Название фильма : релиз от FREEISLAND.ORG
Дата кодирования : UTC 2013-01-17 09:26:39
Программа кодирования : mkvmerge v5.8.0 ('No Sleep / Pillow') built on Sep 2 2012 15:37:04
Библиотека кодирования : libebml v1.2.3 + libmatroska v1.3.0

Видео
Идентификатор : 1
Формат : AVC
Формат/Информация : Advanced Video Codec
Профиль формата : High 10@L4.0
Параметр CABAC формата : Да
Параметр ReFrames формата : 16 кадров
Идентификатор кодека : V_MPEG4/ISO/AVC
Продолжительность : 1 ч. 8 м.
Битрейт : 1235 Кбит/сек
Ширина : 720 пикселей
Высота : 576 пикселей
Соотношение сторон : 16:9
Частота кадров : 25,000 кадров/сек
Стандарт вещания : PAL
Цветовое пространство : YUV
Субдискретизация насыщенности : 4:2:0
Битовая глубина : 10 бит
Тип развёртки : Прогрессивная
Бит/(Пиксели*Кадры) : 0.119
Размер потока : 591 Мбайт (85%)
Библиотека кодирования : x264 core 129 r2245+704+35 dbbd7a1 tMod [10-bit@all X86_64]
Настройки программы : cabac=1 / ref=16 / deblock=1:1:1 / analyse=0x3:0x133 / me=umh / subme=11 / psy=1 / fade_compensate=0.00 / psy_rd=1.00:0.15 / mixed_ref=1 / me_range=64 / chroma_me=1 / trellis=2 / 8x8dct=1 / cqm=0 / deadzone=21,11 / fast_pskip=0 / chroma_qp_offset=-3 / threads=12 / lookahead_threads=2 / sliced_threads=0 / nr=0 / decimate=1 / interlaced=0 / bluray_compat=0 / constrained_intra=0 / fgo=0 / bframes=12 / b_pyramid=2 / b_adapt=2 / b_bias=0 / direct=3 / weightb=1 / open_gop=0 / weightp=2 / keyint=275 / keyint_min=20 / scenecut=40 / intra_refresh=0 / rc_lookahead=0 / rc=2pass / mbtree=0 / bitrate=1235 / ratetol=1.0 / qcomp=1.00 / qpmin=0 / qpmax=48 / qpstep=4 / cplxblur=20.0 / qblur=0.5 / vbv_maxrate=50000 / vbv_bufsize=62500 / nal_hrd=none / ip_ratio=1.40 / pb_ratio=1.30 / aq=4:0.80
Default : Да
Forced : Нет
Основные цвета : BT.601-6 525, BT.1358 525, BT.1700 NTSC, SMPTE 170M
Характеристики трансфера : BT.601-6 525, BT.601-6 625, BT.1358 525, BT.1358 625, BT.1700 NTSC, SMPTE 170M
Коэффициенты матрицы : BT.601-6 525, BT.1358 525, BT.1700 NTSC, SMPTE 170M

Аудио
Идентификатор : 2
Формат : AC-3
Формат/Информация : Audio Coding 3
Расширение режима : CM (complete main)
Идентификатор кодека : A_AC3
Продолжительность : 1 ч. 8 м.
Вид битрейта : Постоянный
Битрейт : 192 Кбит/сек
Каналы : 2 канала
Расположение каналов : Front: L R
Частота : 48,0 КГц
Битовая глубина : 16 бит
Метод сжатия : С потерями
Размер потока : 93,9 Мбайт (13%)
Язык : Russian
Default : Да
Forced : Нет

Меню
00:00:00.000 : :01
00:05:29.280 : :02
00:14:04.840 : :03
00:21:54.960 : :04
00:29:24.640 : :05
00:34:41.120 : :06
00:40:24.040 : :07
00:47:28.840 : :08
00:54:25.080 : :09
00:56:29.920 : :10
00:58:38.760 : :11
01:02:42.560 : :12













Релиз от:

Если у вас возникают вопросы типа:
-почему у меня есть звук и отсутствует изображение?
-почему у меня рассыпается картинка?
-почему у меня картинка фонит синевой или зеленью?
-зачем и кому всё это нужно?
и тому подобные, читаем FAQ.
ссылка на FAQ запрещена правилами.

По этому, гуглим на тему спойлера (Что такое 10-ти битное видео (High 10 Profile - Hi10P), и как его смотреть?).



   Похожие торренты   Торрент   Размер 
В этой теме нет новых непрочитанных сообщений. Три богатыря на дальних берегах (2012) BDRip 1080p [Hi10P] от FREEISLAND

28 | 14

2.91 ГБ

В этой теме нет новых непрочитанных сообщений. Три богатыря на дальних берегах (2012) BDRip-AVC от FREEISLAND

500 | 28

657.04 МБ

В этой теме нет новых непрочитанных сообщений. Три богатыря на дальних берегах (2012) DVDRip-AVC от Youtracker

28 | 5

1.46 ГБ

В этой теме нет новых непрочитанных сообщений. Три богатыря на дальних берегах (2012) DVDRip от Generalfilm | КПК

12 | 4

257.61 МБ

В этой теме нет новых непрочитанных сообщений. Три богатыря на дальних берегах (2012) DVDRip | Лицензия

9 | 4

702.62 МБ

В этой теме нет новых непрочитанных сообщений. Три богатыря на дальних берегах (2012) Blu-Ray 1080p

13 | 6

9.24 ГБ

В этой теме нет новых непрочитанных сообщений. Три богатыря на дальних берегах [2D/3D] (2012) Blu-Ray | Лицензия

5 | 6

15.91 ГБ




Вы не можете начинать темы
Вы не можете отвечать на сообщения
Вы не можете редактировать свои сообщения
Вы не можете удалять свои сообщения
Вы не можете добавлять вложения

Перейти:  
Для Мосгорсуда, Роскомнадзора и рекламодателей: mosgorsud-torrent[собачка]yandex.ru
 Вход
ppkBB3cker v.2 © 2008-2014 @ PPK
[ Time : 0.043s | 14 Queries | GZIP : Off ]

Торрент трекер RUTOR.IN, Не можете зайти на rutor.org? Какой новый адрес рутор? Какое зеркало рутор? Не работает rutor.org и зеркала? Тогда наш торрент специально для вас. Rutor.in неофициальное зеркало rutor. В случае если у Вас заблокирован rutor или вдруг Вы не можете на него зайти, то Вы без труда сможете скачать бесплатно и без рекламы последние новинки кино, игр, сериалов и прочего у нас, на Rutor.in. Не нужно использовать прокси, чтобы зайти на рутор, достаточно воспользоваться нашим ресурсом. Все новые фильмы, игры, сериалы, книги и музыка за 2013 и 2014 годы через торрент бесплатно. Скачивайте фильмы в хорошем качестве, игры для пк, xbox, playstation без регистрации. У нас вы найдете новые Зарубежные сериалы и Русские сериалы 2013, 2014, 2015 годов. Оставайтесь с нами, качайте любимые фильмы, игры, сериалы, книги и музыку.