img image001 image001 image001 image001 image001 image001 image001 image001 image001 image001 image001 image001 image001 image001 image001 image001

Planets Sun Sun Sun
Статистика раздачи
Автор: Снежана | Размер: 745.07 МБ | Добавлен: 27 июл 2013
Раздают: 6    Качают: 2
Скачать торрент
Скачать торрент
Описание торрента

СообщениеДобавлено: 27 июл 2013 

«Маленький братишка - большие хлопоты»



#77
Год выпуска: 2012
Страна: Финляндия, Германия, Дания, Ирландия
Жанр: мультфильм, комедия, приключения, семейный
Продолжительность: 01:16:06
Перевод: Профессиональный (дублированный)
Оригинальная аудиодорожка: английский
Cубтитры: русский

Режиссер: Кари Юуусонен / Kari Juusonen, Юрген Лердам / Jorgen Lerdam

Роли озвучивали: Эрик Карлсон, Кари Хиеталахти, Кари Кетонен, Юха Вейонен, Элина Книхтиля, Яакко Саарилуома, Юкка Расила, Рику Ниеминен, Пертти Койвула, Аааре Карен...

Роли дублировал: Дмитрий Курта

Описание: Новые приключения веселого и отважного олененка Нико, мечтающего, как и его легендарный отец, стать летающим оленем в упряжке Санта-Клауса. Все начинается накануне Рождества. Вместе со своими друзьями, белкой Джулиусом, лаской Вилмой и сводным братишкой Джонни Нико с нетерпением ждет Санту. Но тот снова попадает в невероятную историю. Неужели дети останутся без подарков?





Исходник: Blu-ray 1080p
Тип релиза: BDRip
Контейнер: AVI

Видео: 720x384 (1.85:1), 23.976 fps, XviD ~ 1232 kbps avg, 0.186 bit/pixel
Аудио: 48 kHz, МР3 2.0 128 kbps, русский

Раздача от:
Общее
Полное имя : Niko2.2012.D.BDRip.745MB_[Youtracker]_by_avproh.avi
Формат : AVI
Формат/Информация : Audio Video Interleave
Размер файла : 745 Мбайт
Продолжительность : 1 ч. 16 м.
Общий поток : 1369 Кбит/сек
Программа кодирования : VirtualDubMod 1.5.10.3 (build 2550/release)
Библиотека кодирования : VirtualDubMod build 2550/release

Видео
Идентификатор : 0
Формат : MPEG-4 Visual
Профиль формата : Advanced Simple@L5
Параметр BVOP формата : 1
Параметр QPel формата : Нет
Параметр GMC формата : Без точки перехода
Параметр матрицы формата : Выборочная
Идентификатор кодека : XVID
Идентификатор кодека/Подсказка : XviD
Продолжительность : 1 ч. 16 м.
Битрейт : 1232 Кбит/сек
Ширина : 720 пикселей
Высота : 384 пикселя
Соотношение сторон : 1,85:1
Частота кадров : 23,976 кадра/сек
Цветовое пространство : YUV
Субдискретизация насыщенности : 4:2:0
Битовая глубина : 8 бит
Тип развёртки : Прогрессивная
Метод сжатия : С потерями
Бит/(Пиксели*Кадры) : 0.186
Размер потока : 670 Мбайт (90%)
Библиотека кодирования : XviD 65

Аудио
Идентификатор : 1
Формат : MPEG Audio
Версия формата : Version 1
Профиль формата : Layer 3
Режим : Joint stereo
Расширение режима : MS Stereo
Идентификатор кодека : 55
Идентификатор кодека/Подсказка : MP3
Продолжительность : 1 ч. 16 м.
Вид битрейта : Постоянный
Битрейт : 128 Кбит/сек
Каналы : 2 канала
Частота : 48,0 КГц
Метод сжатия : С потерями
Размер потока : 69,7 Мбайт (9%)
Выравнивание : Соединение по промежуткам
Продолжительность промежутка : 42 мс. (1,00 видеокадр)
Время предзагрузки промежутка : 504 мс.





   Похожие торренты   Торрент   Размер 
В этой теме нет новых непрочитанных сообщений. Нико 2 / Niko 2: Lentäjäveljekset (2012) BDRip-AVC от Leonardo and Scarabey

166 | 23

1.4 ГБ

В этой теме нет новых непрочитанных сообщений. Нико: Путь к звёздам / Niko - Lentäjän poika (2008) BDRip 720

236 | 15

2.11 ГБ

В этой теме нет новых непрочитанных сообщений. Alex and Niko - Alex and Niko (2015) MP3

17 | 0

94.75 МБ

В этой теме нет новых непрочитанных сообщений. Простые сложности Нико Фишера / Oh Boy (2012) HDRip от TorrNada | P

118 | 18

1.38 ГБ

В этой теме нет новых непрочитанных сообщений. В осаде / Захват / Нико-5 / Under Siege (1992) BDRip от HQ-ViDEO

326 | 23

1.46 ГБ

В этой теме нет новых непрочитанных сообщений. Niko: Through The Dream (2015) PC | RePack

54 | 4

1.01 ГБ

В этой теме нет новых непрочитанных сообщений. Niko: Through The Dream (2015) PC | Лицензия

514 | 15

1.75 ГБ




Вы не можете начинать темы
Вы не можете отвечать на сообщения
Вы не можете редактировать свои сообщения
Вы не можете удалять свои сообщения
Вы не можете добавлять вложения

Перейти:  
 Вход
ppkBB3cker v.2 © 2008-2014 @ PPK
[ Time : 0.036s | 15 Queries | GZIP : Off ]

cron