img image001 image001 image001 image001 image001 image001 image001 image001 image001 image001 image001 image001 image001 image001 image001

Planets Sun Sun Sun
Статистика раздачи
Автор: Снежана | Размер: 1.74 ГБ | Добавлен: 27 июл 2013
Раздают: 17    Качают: 1
Скачать торрент
Скачать торрент
Описание торрента

СообщениеДобавлено: 27 июл 2013 

«По следам Индианы Джонса»



#77
Год выпуска: 2012
Страна: Испания
Жанр: мультфильм, приключения, семейный
Продолжительность: 1:31:55

Перевод: Профессиональный (дублированный)
Субтитры: русский
Оригинальная аудиодорожка: английский (отдельным файлом)

Режиссер: Энрике Гато / Enrique Gato

Роли озвучивали: Оскар Барберан, Меритксель Ане, Карлес Канут, Фиона Глэскотт, Адам Джеймс, Мишель Хеннер, Мигель Анхель Дженнер, Энрикета Линарес, Мак МакДональд, Брюс Маккиннон...

Роли дублировали: Пётр Иващенко, Станислав Дужников, Федор Добронравов, Даниил Эльдаров, Марина Александрова...

Описание: Тэд — обычный чикагский строитель, страстно мечтающий о невероятных открытиях и опасных приключениях. Однажды его по ошибке принимают за известного археолога и отправляют в Перу на поиски сокровищ инков. Радости Тэда не было предела, но, похоже, она оказалась преждевременной…





Исходник: Blu-ray 1080p
Тип релиза: BDRip-AVC
Контейнер: MKV

Видео: 960x540 (16:9), 23.976 fps, H264 ~ 1818 kbps avg, 0.146 bit/pixel
Аудио 1: 48 kHz, АС3 , 6 ch, 448.00 kbps, русский
Аудио 2: 48 kHz, АС3 , 6 ch, 448.00 kbps, английский (отдельным файлом)
Формат субтитров: SoftSub (srt)

Раздача от:
Общее
Полное имя : Ted.Djons.2012.D.BDRip-AVC_[Youtracker]_by_avproh.mkv
Формат : Matroska
Версия формата : Version 4 / Version 2
Размер файла : 1,46 Гбайт
Продолжительность : 1 ч. 31 м.
Общий поток : 2268 Кбит/сек
Дата кодирования : UTC 2010-02-22 21:41:31
Программа кодирования : mkvmerge v5.9.0 ('On The Loose') built on Dec 9 2012 15:37:01
Библиотека кодирования : libebml v1.3.0 + libmatroska v1.4.0

Видео
Идентификатор : 1
Формат : AVC
Формат/Информация : Advanced Video Codec
Профиль формата : High@L4.1
Параметр CABAC формата : Да
Параметр ReFrames формата : 11 кадров
Идентификатор кодека : V_MPEG4/ISO/AVC
Продолжительность : 1 ч. 31 м.
Битрейт : 1818 Кбит/сек
Ширина : 960 пикселей
Высота : 540 пикселей
Соотношение сторон : 16:9
Частота кадров : 23,976 кадра/сек
Цветовое пространство : YUV
Субдискретизация насыщенности : 4:2:0
Битовая глубина : 8 бит
Тип развёртки : Прогрессивная
Бит/(Пиксели*Кадры) : 0.146
Размер потока : 1,14 Гбайт (78%)
Библиотека кодирования : x264 core 119 r2106 07efeb4
Настройки программы : cabac=1 / ref=11 / deblock=1:-2:-1 / analyse=0x3:0x113 / me=umh / subme=9 / psy=1 / psy_rd=1.00:0.10 / mixed_ref=1 / me_range=32 / chroma_me=1 / trellis=2 / 8x8dct=1 / cqm=0 / deadzone=21,11 / fast_pskip=1 / chroma_qp_offset=-3 / threads=9 / sliced_threads=0 / nr=0 / decimate=1 / interlaced=0 / bluray_compat=0 / constrained_intra=0 / bframes=10 / b_pyramid=2 / b_adapt=2 / b_bias=0 / direct=3 / weightb=1 / open_gop=0 / weightp=2 / keyint=240 / keyint_min=23 / scenecut=40 / intra_refresh=0 / rc_lookahead=80 / rc=2pass / mbtree=1 / bitrate=1818 / ratetol=1.0 / qcomp=0.60 / qpmin=0 / qpmax=69 / qpstep=4 / cplxblur=20.0 / qblur=0.5 / ip_ratio=1.40 / aq=2:0.90
Язык : English
Default : Да
Forced : Нет

Аудио
Идентификатор : 2
Формат : AC-3
Формат/Информация : Audio Coding 3
Расширение режима : CM (complete main)
Параметр Endianness формата : Big
Идентификатор кодека : A_AC3
Продолжительность : 1 ч. 31 м.
Вид битрейта : Постоянный
Битрейт : 448 Кбит/сек
Каналы : 6 каналов
Расположение каналов : Front: L C R, Side: L R, LFE
Частота : 48,0 КГц
Битовая глубина : 16 бит
Метод сжатия : С потерями
Размер потока : 295 Мбайт (20%)
Язык : Russian
Default : Нет
Forced : Нет

Текст
Идентификатор : 3
Формат : UTF-8
Идентификатор кодека : S_TEXT/UTF8
Идентификатор кодека/Информация : UTF-8 Plain Text
Язык : Russian
Default : Нет
Forced : Нет





   Похожие торренты   Торрент   Размер 
В этой теме нет новых непрочитанных сообщений. Тэд Джонс и Затерянный город / Las aventuras de Tadeo Jones (2012) BDRip от Youtracker | D | лицензия

20 | 6

744.9 МБ

В этой теме нет новых непрочитанных сообщений. Тэд Джонс и Затерянный город / Las aventuras de Tadeo Jones (2012) BDRip от Youtracker | D | лицензия

46 | 3

1.74 ГБ

В этой теме нет новых непрочитанных сообщений. Тэд Джонс и Затерянный город / Las aventuras de Tadeo Jones (2012) BDRip 1080p от Youtracker

3 | 2

8.85 ГБ

В этой теме нет новых непрочитанных сообщений. Тэд Джонс и Затерянный город / Las aventuras de Tadeo Jones (2012) BDRip 1080p от Youtracker | 3D-Video

35 | 3

9.04 ГБ

В этой теме нет новых непрочитанных сообщений. Тэд Джонс и Затерянный город / Las aventuras de Tadeo Jones (2012) BDRip 720p | Лицензия

12 | 1

4.66 ГБ

В этой теме нет новых непрочитанных сообщений. Тэд Джонс и Затерянный город 2D / Las aventuras de Tadeo Jones (2012) DVD5 от Youtracker | D | сжатый

5 | 2

3.39 ГБ

В этой теме нет новых непрочитанных сообщений. Тэд Джонс и Затерянный город / Las aventuras de Tadeo Jones (2012) DVD9 R5 от Youtracker | D | 3D Video

0 | 2

6.92 ГБ




Вы не можете начинать темы
Вы не можете отвечать на сообщения
Вы не можете редактировать свои сообщения
Вы не можете удалять свои сообщения
Вы не можете добавлять вложения

Перейти:  
Для Мосгорсуда, Роскомнадзора и рекламодателей: mosgorsud-torrent[собачка]yandex.ru
 Вход
ppkBB3cker v.2 © 2008-2014 @ PPK
[ Time : 0.021s | 15 Queries | GZIP : Off ]

Торрент трекер RUTOR.IN, Не можете зайти на rutor.org? Какой новый адрес рутор? Какое зеркало рутор? Не работает rutor.org и зеркала? Тогда наш торрент специально для вас. Rutor.in неофициальное зеркало rutor. В случае если у Вас заблокирован rutor или вдруг Вы не можете на него зайти, то Вы без труда сможете скачать бесплатно и без рекламы последние новинки кино, игр, сериалов и прочего у нас, на Rutor.in. Не нужно использовать прокси, чтобы зайти на рутор, достаточно воспользоваться нашим ресурсом. Все новые фильмы, игры, сериалы, книги и музыка за 2013 и 2014 годы через торрент бесплатно. Скачивайте фильмы в хорошем качестве, игры для пк, xbox, playstation без регистрации. У нас вы найдете новые Зарубежные сериалы и Русские сериалы 2013, 2014, 2015 годов. Оставайтесь с нами, качайте любимые фильмы, игры, сериалы, книги и музыку.