img image001 image001 image001 image001 image001 image001 image001 image001 image001 image001 image001 image001 image001 image001 image001

Planets Sun Sun Sun
Статистика раздачи
Автор: Снежана | Размер: 1.46 ГБ | Добавлен: 27 июл 2013
Раздают: 34    Качают: 10
Скачать торрент
Скачать торрент
Описание торрента

СообщениеДобавлено: 27 июл 2013 

«Маленький братишка - большие хлопоты»



#77
Год выпуска: 2012
Страна: Финляндия, Германия, Дания, Ирландия
Жанр: мультфильм, комедия, приключения, семейный
Продолжительность: 01:16:06
Перевод: Профессиональный (дублированный)
Оригинальная аудиодорожка: английский
Cубтитры: русский

Режиссер: Кари Юуусонен / Kari Juusonen, Юрген Лердам / Jorgen Lerdam

Роли озвучивали: Эрик Карлсон, Кари Хиеталахти, Кари Кетонен, Юха Вейонен, Элина Книхтиля, Яакко Саарилуома, Юкка Расила, Рику Ниеминен, Пертти Койвула, Аааре Карен...

Роли дублировал: Дмитрий Курта

Описание: Новые приключения веселого и отважного олененка Нико, мечтающего, как и его легендарный отец, стать летающим оленем в упряжке Санта-Клауса. Все начинается накануне Рождества. Вместе со своими друзьями, белкой Джулиусом, лаской Вилмой и сводным братишкой Джонни Нико с нетерпением ждет Санту. Но тот снова попадает в невероятную историю. Неужели дети останутся без подарков?





Исходник: Blu-ray 1080p
Тип релиза: BDRip-AVC
Контейнер: MKV

Видео: 1024x552 (1.85:1), 23.976 fps, H264 ~ 1842 kbps avg, 0.136 bit/pixel
Аудио 1: 48 kHz, Dolby AC3 5.1 448 kbps, русский
Аудио 2: 48 kHz, Dolby AC3 5.1 448 kbps, английский
Формат субтитров: SoftSub (srt)

Раздача от:
Общее
Полное имя : Niko2.2012.D.BDRip-AVC_[Youtracker]_by_avproh.mkv
Формат : Matroska
Версия формата : Version 4 / Version 2
Размер файла : 1,46 Гбайт
Продолжительность : 1 ч. 16 м.
Общий поток : 2740 Кбит/сек
Дата кодирования : UTC 2010-02-22 21:41:31
Программа кодирования : mkvmerge v5.9.0 ('On The Loose') built on Dec 9 2012 15:37:01
Библиотека кодирования : libebml v1.3.0 + libmatroska v1.4.0

Видео
Идентификатор : 1
Формат : AVC
Формат/Информация : Advanced Video Codec
Профиль формата : High@L4.1
Параметр CABAC формата : Да
Параметр ReFrames формата : 11 кадров
Идентификатор кодека : V_MPEG4/ISO/AVC
Продолжительность : 1 ч. 16 м.
Битрейт : 1842 Кбит/сек
Ширина : 1024 пикселя
Высота : 552 пикселя
Соотношение сторон : 1,85:1
Частота кадров : 23,976 кадра/сек
Цветовое пространство : YUV
Субдискретизация насыщенности : 4:2:0
Битовая глубина : 8 бит
Тип развёртки : Прогрессивная
Бит/(Пиксели*Кадры) : 0.136
Размер потока : 974 Мбайт (65%)
Библиотека кодирования : x264 core 119 r2106 07efeb4
Настройки программы : cabac=1 / ref=11 / deblock=1:-2:-1 / analyse=0x3:0x113 / me=umh / subme=9 / psy=1 / psy_rd=1.00:0.10 / mixed_ref=1 / me_range=32 / chroma_me=1 / trellis=2 / 8x8dct=1 / cqm=0 / deadzone=21,11 / fast_pskip=1 / chroma_qp_offset=-3 / threads=6 / sliced_threads=0 / nr=0 / decimate=1 / interlaced=0 / bluray_compat=0 / constrained_intra=0 / bframes=10 / b_pyramid=2 / b_adapt=2 / b_bias=0 / direct=3 / weightb=1 / open_gop=0 / weightp=2 / keyint=240 / keyint_min=23 / scenecut=40 / intra_refresh=0 / rc_lookahead=80 / rc=2pass / mbtree=1 / bitrate=1842 / ratetol=1.0 / qcomp=0.60 / qpmin=0 / qpmax=69 / qpstep=4 / cplxblur=20.0 / qblur=0.5 / ip_ratio=1.40 / aq=2:0.90
Язык : English
Default : Да
Forced : Нет

Аудио #1
Идентификатор : 2
Формат : AC-3
Формат/Информация : Audio Coding 3
Расширение режима : CM (complete main)
Параметр Endianness формата : Big
Идентификатор кодека : A_AC3
Продолжительность : 1 ч. 16 м.
Вид битрейта : Постоянный
Битрейт : 448 Кбит/сек
Каналы : 6 каналов
Расположение каналов : Front: L C R, Side: L R, LFE
Частота : 48,0 КГц
Битовая глубина : 16 бит
Метод сжатия : С потерями
Размер потока : 244 Мбайт (16%)
Язык : Russian
Default : Да
Forced : Нет

Аудио #2
Идентификатор : 3
Формат : AC-3
Формат/Информация : Audio Coding 3
Расширение режима : CM (complete main)
Параметр Endianness формата : Big
Идентификатор кодека : A_AC3
Продолжительность : 1 ч. 16 м.
Вид битрейта : Постоянный
Битрейт : 448 Кбит/сек
Каналы : 6 каналов
Расположение каналов : Front: L C R, Side: L R, LFE
Частота : 48,0 КГц
Битовая глубина : 16 бит
Метод сжатия : С потерями
Размер потока : 244 Мбайт (16%)
Язык : English
Default : Нет
Forced : Нет

Текст
Идентификатор : 4
Формат : UTF-8
Идентификатор кодека : S_TEXT/UTF8
Идентификатор кодека/Информация : UTF-8 Plain Text
Язык : Russian
Default : Нет
Forced : Нет





   Похожие торренты   Торрент   Размер 
В этой теме нет новых непрочитанных сообщений. Нико 2 / Niko 2: Lentajaveljekset (2012) BDRip от Youtracker | D

27 | 4

1.46 ГБ

В этой теме нет новых непрочитанных сообщений. Нико 2 / Niko 2: Lentajaveljekset (2012) BDRip от Youtracker | D

6 | 2

745.07 МБ

В этой теме нет новых непрочитанных сообщений. Нико 2 / Niko 2: Lentajaveljekset (2012) BDRip 1080p от Youtracker | 3D-Video

35 | 10

5.83 ГБ

В этой теме нет новых непрочитанных сообщений. Нико 2 / Niko 2: Lentajaveljekset (2012) DVDRip-AVC от Youtracker | D

5 | 3

1.45 ГБ

В этой теме нет новых непрочитанных сообщений. Нико 2 / Niko 2: Lentajaveljekset (2012) DVD9 R5 от Youtracker | D

0 | 2

5.14 ГБ

В этой теме нет новых непрочитанных сообщений. Нико 2 / Niko 2: Lentajaveljekset (2012) DVDRip от Youtracker | D

2 | 2

744.81 МБ

В этой теме нет новых непрочитанных сообщений. Нико 2 / Niko 2: Lentajaveljekset (2012) DVDRip от Youtracker | D

270 | 8

1.46 ГБ




Вы не можете начинать темы
Вы не можете отвечать на сообщения
Вы не можете редактировать свои сообщения
Вы не можете удалять свои сообщения
Вы не можете добавлять вложения

Перейти:  
Для Мосгорсуда, Роскомнадзора и рекламодателей: mosgorsud-torrent[собачка]yandex.ru
 Вход
ppkBB3cker v.2 © 2008-2014 @ PPK
[ Time : 1.331s | 15 Queries | GZIP : Off ]

Торрент трекер RUTOR.IN, Не можете зайти на rutor.org? Какой новый адрес рутор? Какое зеркало рутор? Не работает rutor.org и зеркала? Тогда наш торрент специально для вас. Rutor.in неофициальное зеркало rutor. В случае если у Вас заблокирован rutor или вдруг Вы не можете на него зайти, то Вы без труда сможете скачать бесплатно и без рекламы последние новинки кино, игр, сериалов и прочего у нас, на Rutor.in. Не нужно использовать прокси, чтобы зайти на рутор, достаточно воспользоваться нашим ресурсом. Все новые фильмы, игры, сериалы, книги и музыка за 2013 и 2014 годы через торрент бесплатно. Скачивайте фильмы в хорошем качестве, игры для пк, xbox, playstation без регистрации. У нас вы найдете новые Зарубежные сериалы и Русские сериалы 2013, 2014, 2015 годов. Оставайтесь с нами, качайте любимые фильмы, игры, сериалы, книги и музыку.