img image001 image001 image001 image001 image001 image001 image001 image001 image001 image001 image001 image001 image001 image001 image001

Planets Sun Sun Sun
Статистика раздачи
Автор: Снежана | Размер: 4.42 ГБ | Добавлен: 27 июл 2013
Раздают: 822    Качают: 151
Скачать торрент
Скачать торрент
Описание торрента

СообщениеДобавлено: 27 июл 2013 

20.01.2013. Добавил 4 серии 11-го выпуска, перекачайте торрент файл.
Фиксики / Выпуски 1 - 11 / Серии 01 - 48 из 48



#77

Страна: Россия
Жанр: мультфильм, детский
Год выпуска: 2010 - 2012

Продолжительность: 48 х ~6 минут
Перевод: Не требуется
Cубтитры: нет

Режиссер: Васико Бедошвили, Андрей Колпин...

В ролях: Дмитрий Назаров, Лариса Брохман, Инна Королёва, Иван Добряков, Яков Васильев...

Описание: А кто такие фиксики — большой-большой секрет!» — так поётся в песенке про фиксиков. До недавнего времени люди почти ничего не знали об этих маленьких человечках, которые живут внутри машин и приборов. Фиксики ухаживают за техникой изнутри, чистят её, смазывают, устраняют мелкие поломки. Они — умелые и добросовестные мастера. Фиксики привыкли скрываться от людей, но есть они повсюду: в компьютерах, холодильниках, телевизорах… Каждый помнит о случаях, когда неработающий прибор начинал вдруг работать, если по нему слегка стукнуть. Всё просто: внутри проснулся фиксик и всё наладил. А теперь об этих таинственных трудолюбивых человечках можно посмотреть мультфильмы и познакомиться с ними поближе…





Источник: 11хDVD5 R5
Качество видео: DVDRip-AVC
Формат видео: MKV

Видео: 720x576@1024x576 (16:9), 25 fps, H264 ~ 2000 kbps avg, 0.193 bit/pixel
Аудио: 48 kHz, AC3, 2 ch, 192.00 kbps Русский
Дополнительно: Сэмпл не представляю, поскольку серии маленькие, скачайте одну (меньше 100 мб) и всё увидите.

Раздача от:

Выпуск 1:
01. Сифон
02. Компакт-диск
03. Будильник
04. Пылесос
05. Пульт
06. Холодильник
07. Кодовый замок
08. Эсэмэски
Выпуск 2:
09. Электрочайник
10. Воздушный шар
11. Микроволновка
12. Зубная щетка
Выпуск 3:
13. Винтики
14. Железная дорога
15. Деталька
16. Степлер
Выпуск 4:
17. Сотовый телефон
18. Шариковая ручка
19. Аквариум
20. Клавиатура
Выпуск 5:
21. Робот
22. Стиральная машина
23. Фонарик
24. Гирлянда
Выпуск 6:
25. Термометр
26. Магнит
27. Короткое замыкание
28. Музыкальная шкатулка
Выпуск 7:
29. Вентилятор
30. Солнечная батарея
31. Фен
32. Компас
Выпуск 8:
33. Рычаг
34. Кораблик
35. Взбитые сливки
36. Волшебная палочка
Выпуск 9:
37. Мультик
38. Застежка-молния
39. Ночник
40. Миксер
Выпуск 10:
41. Лупа
42. Бумага
43. Сигнализация
44. Термос
Выпуск 11:
45. Весы
46. Копилка
47. Консервная банка
48. Команда

Общее
Полное имя : Fiksiki.2012.O.DVDRip-AVC_[Youtracker]_by_avproh1.mkv
Формат : Matroska
Версия формата : Version 2
Размер файла : 91,5 Мбайт
Продолжительность : 5 м. 50 с.
Общий поток : 2187 Кбит/сек
Дата кодирования : UTC 2012-10-25 10:44:06
Программа кодирования : mkvmerge v5.8.0 ('No Sleep / Pillow') built on Sep 2 2012 15:37:04
Библиотека кодирования : libebml v1.2.3 + libmatroska v1.3.0

Видео
Идентификатор : 1
Формат : AVC
Формат/Информация : Advanced Video Codec
Профиль формата : High@L4.1
Параметр CABAC формата : Да
Параметр ReFrames формата : 11 кадров
Идентификатор кодека : V_MPEG4/ISO/AVC
Продолжительность : 5 м. 50 с.
Битрейт : 2000 Кбит/сек
Ширина : 720 пикселей
Высота : 576 пикселей
Соотношение сторон : 16:9
Частота кадров : 25,000 кадров/сек
Стандарт вещания : PAL
Цветовое пространство : YUV
Субдискретизация насыщенности : 4:2:0
Битовая глубина : 8 бит
Тип развёртки : Прогрессивная
Бит/(Пиксели*Кадры) : 0.193
Размер потока : 81,6 Мбайт (89%)
Библиотека кодирования : x264 core 119 r2106 07efeb4
Настройки программы : cabac=1 / ref=11 / deblock=1:-2:-1 / analyse=0x3:0x113 / me=umh / subme=9 / psy=1 / psy_rd=1.00:0.20 / mixed_ref=1 / me_range=32 / chroma_me=1 / trellis=1 / 8x8dct=1 / cqm=0 / deadzone=21,11 / fast_pskip=0 / chroma_qp_offset=-3 / threads=6 / sliced_threads=0 / nr=0 / decimate=0 / interlaced=0 / bluray_compat=0 / constrained_intra=0 / bframes=8 / b_pyramid=2 / b_adapt=2 / b_bias=0 / direct=3 / weightb=1 / open_gop=0 / weightp=2 / keyint=250 / keyint_min=25 / scenecut=40 / intra_refresh=0 / rc_lookahead=60 / rc=2pass / mbtree=1 / bitrate=2000 / ratetol=1.0 / qcomp=0.60 / qpmin=0 / qpmax=69 / qpstep=4 / cplxblur=20.0 / qblur=0.5 / ip_ratio=1.40 / aq=1:1.00
Язык : English
Default : Да
Forced : Нет

Аудио
Идентификатор : 2
Формат : AC-3
Формат/Информация : Audio Coding 3
Расширение режима : CM (complete main)
Параметр Endianness формата : Big
Идентификатор кодека : A_AC3
Продолжительность : 5 м. 50 с.
Вид битрейта : Постоянный
Битрейт : 192 Кбит/сек
Каналы : 2 канала
Расположение каналов : Front: L R
Частота : 48,0 КГц
Битовая глубина : 16 бит
Метод сжатия : С потерями
Размер потока : 8,03 Мбайт (9%)
Язык : Russian
Default : Да
Forced : Нет





   Похожие торренты   Торрент   Размер 
В этой теме нет новых непрочитанных сообщений. Фиксики [S01-11x01-52 + бонусы] (2010-2012) DVDRip от Youtracker

1092 | 103

5.19 ГБ

В этой теме нет новых непрочитанных сообщений. Фиксики [01-88 из 88] (2010-2012) 11xDVD5 от Youtracker | лицензия

17 | 12

32.51 ГБ

В этой теме нет новых непрочитанных сообщений. Фиксики: Любимые серии... [01-80 из 80] (2012) 8xDVD5 от Youtracker R5

8 | 11

29.16 ГБ

В этой теме нет новых непрочитанных сообщений. Фиксики [01-124 из 124] (2010-2012) 16xDVD5 от New-Team | Лицензия

348 | 380

47.6 ГБ

В этой теме нет новых непрочитанных сообщений. Фиксики [S01-03x01-105 из ? + 17 Фиксипелок + 18 бонусов] (2010-2015) DVDRip-AVC от New-Team | лицензия

258 | 340

10.28 ГБ

В этой теме нет новых непрочитанных сообщений. Фиксики [S01-03x01-105 из ? + 17 Фиксипелок + 18 бонусов] (2010-2015) DVDRip-AVC от New-Team | лицензия

548 | 670

10.3 ГБ

В этой теме нет новых непрочитанных сообщений. Фиксики [S01-03x01-113 из ? + 17 Фиксипелок + 18 бонусов] (2010-2015) DVDRip-AVC от New-Team | лицензия

1018 | 484

10.97 ГБ




Вы не можете начинать темы
Вы не можете отвечать на сообщения
Вы не можете редактировать свои сообщения
Вы не можете удалять свои сообщения
Вы не можете добавлять вложения

Перейти:  
Для Мосгорсуда, Роскомнадзора и рекламодателей: mosgorsud-torrent[собачка]yandex.ru
 Вход
ppkBB3cker v.2 © 2008-2014 @ PPK
[ Time : 0.091s | 14 Queries | GZIP : Off ]

Торрент трекер RUTOR.IN, Не можете зайти на rutor.org? Какой новый адрес рутор? Какое зеркало рутор? Не работает rutor.org и зеркала? Тогда наш торрент специально для вас. Rutor.in неофициальное зеркало rutor. В случае если у Вас заблокирован rutor или вдруг Вы не можете на него зайти, то Вы без труда сможете скачать бесплатно и без рекламы последние новинки кино, игр, сериалов и прочего у нас, на Rutor.in. Не нужно использовать прокси, чтобы зайти на рутор, достаточно воспользоваться нашим ресурсом. Все новые фильмы, игры, сериалы, книги и музыка за 2013 и 2014 годы через торрент бесплатно. Скачивайте фильмы в хорошем качестве, игры для пк, xbox, playstation без регистрации. У нас вы найдете новые Зарубежные сериалы и Русские сериалы 2013, 2014, 2015 годов. Оставайтесь с нами, качайте любимые фильмы, игры, сериалы, книги и музыку.