img image001 image001 image001 image001 image001 image001 image001 image001 image001 image001 image001 image001 image001 image001 image001

Planets Sun Sun Sun
Статистика раздачи
Автор: Снежана | Размер: 5.91 ГБ | Добавлен: 27 июл 2013
Раздают: 41    Качают: 11
Скачать торрент
Скачать торрент
Описание торрента

СообщениеДобавлено: 27 июл 2013 





Черепашки-ниндзя / Teenage Mutant Ninja Turtles









Год выпуска:2012-2013
Выпущено: США
Жанр: Мультфильм, анимация, экшн, приключения, фэнтези
Сезон: 1
Серии: 1-10
Количество серий в сезоне: 15
Продолжительность: 00:23:00
Озвучка:Дубляж [Nickelodeon]
Субтитры: Русские Хардсаб от RU-soft








Режиссер: Алан Ван, Майкл Чанг




Описание: Лео, Раф, Майки и Донни – черепашки-мутанты, научившиеся боевому искусству ниндзюцу у своего сэнсэя Учителя Сплинтера. Выбравшись из канализации на улицы Нью-Йорка, братья оказываются в бурлящем жизнью мегаполисе. Здесь им придется неустанно противостоять самым кровожадным злодеям в истории человечества. В свободное от схваток время ребята занимаются своим любимым делом – дурачатся и едят восхитительную сочную пиццу!




Качество : WEB-DLRip-AVC 720p
Формат: MPEG-4
Видео кодек: H264
Видео: 3083Кбит/сек,1280х720(16.9),в 25.000кадр/сек,AVC(Baseline@L4.0)(1Ref Frames)
Аудио кодек: AAC
Аудио Russian Dolby Digital 5.1:456Кбит/сек,44.1КГц,6каналов,AAC,(Version4)(LC)





Звуковая дорожка сделана путем наложения чистого голоса озвучивателей на центральный канал оригинальной дорожки. Качество идентично звуковой дорожке.






01. Возрождение Черепашек, Часть 1 / Rise of the Turtles, Part 1
02. Возрождение Черепашек, Часть 2 / Rise of the Turtles, Part 2
03. Черепаший нрав / Turtle Temper
04. Новый Друг, Старый Враг / New Friend, Old Enemy
05. Я думаю, его зовут Бакстер Стокман / I Think His Name is Baxter Stockman
06. Жестиголовый / Metalhead
07. Обезьяньи мозги / Monkey Brains
08. Никогда не говори Ксевер / 8 Never Say Xever
09. Рукавица / The Gauntlet
10. Паника В Канализации / Panic In The Sewers

11. Атака Маузеров! / Mousers Attack!
12. Пришедший Из Глубин / It Came From The Depths
[/color]






Общее
Полное имя : D:М У Л Ь Т Ф И Л Ь М ЫTeenage_Mutant_Ninja_Turtles_TV_2012_S01_rus[Nickelodeon]_DD5.1_x264_Nikolai.Baranov_WEB-DLRip-AVC_(720p)Teenage_Mutant_Ninja_Turtles_TV_2012_s01е01_rus[Nickelodeon]_DD5.1_x264_Nikolai.Baranov_WEB-DLRip-AVC_(720p).mp4
Формат : MPEG-4
Профиль формата : Base Media
Идентификатор кодека : isom
Размер файла : 598 Мбайт
Продолжительность : 23 м.
Режим общего битрейта : Переменный
Общий поток : 3543 Кбит/сек
Дата кодирования : UTC 2012-11-29 13:22:29
Дата пометки : UTC 2012-11-29 13:22:29
Программа кодирования : Lavf51.12.1
Видео
Идентификатор : 1
Формат : AVC
Формат/Информация : Advanced Video Codec
Профиль формата : Baseline@L4.0
Параметр CABAC формата : Нет
Параметр ReFrames формата : 1 кадр
Параметр GOP формата : M=1, N=12
Идентификатор кодека : avc1
Идентификатор кодека/Информация : Advanced Video Coding
Продолжительность : 23 м.
Вид битрейта : Переменный
Битрейт : 3083 Кбит/сек
Максимальный битрейт : 4500 Кбит/сек
Ширина : 1280 пикселей
Высота : 720 пикселей
Соотношение сторон : 16:9
Режим частоты кадров : Постоянный
Частота кадров : 25,000 кадров/сек
Частота кадров в оригинале : 24,000 кадра/сек
Цветовое пространство : YUV
Субдискретизация насыщенности : 4:2:0
Битовая глубина : 8 бит
Тип развёртки : Прогрессивная
Бит/(Пиксели*Кадры) : 0.134
Размер потока : 521 Мбайт (87%)
Дата кодирования : UTC 2012-11-29 13:22:29
Дата пометки : UTC 2012-11-29 13:22:29
Аудио
Идентификатор : 2
Формат : AAC
Формат/Информация : Advanced Audio Codec
Профиль формата : LC
Идентификатор кодека : 40
Продолжительность : 23 м.
Вид битрейта : Переменный
Битрейт : 456 Кбит/сек
Каналы : 6 каналов
Расположение каналов : Front: L C R, Side: L R, LFE
Частота : 44,1 КГц
Метод сжатия : С потерями
Размер потока : 77,0 Мбайт (13%)
Дата кодирования : UTC 2012-11-29 13:22:29
Дата пометки : UTC 2012-11-29 13:22:29


















Внимание!!! 21.01. 2013. РАЗДАЧА ОБНОВЛЕНА.ОБНОВИТЕ ТОРЕНТ ФАЙЛ.ПРИЯТНОГО ПРОСМОТРА.




Релиз от: Nikolai.Baranov








[/b]



   Похожие торренты   Торрент   Размер 
В этой теме нет новых непрочитанных сообщений. Черепашки Ниндзя / Teenage Mutant Ninja Turtles [S01] (2012) WEB-DLRip | Nickelodeon | iPhone

176 | 19

3.35 ГБ

В этой теме нет новых непрочитанных сообщений. Черепашки-ниндзя / Черепашки Мутанты Ниндзя / Teenage Mutant Ninja Turtles [01-23 из 26] (2012) WEB-DLRip

140 | 7

4.39 ГБ

В этой теме нет новых непрочитанных сообщений. Черепашки-ниндзя / Черепашки Мутанты Ниндзя / Teenage Mutant Ninja Turtles [01-22 из 26] (2012) WEB-DLRip

51 | 9

4.2 ГБ

В этой теме нет новых непрочитанных сообщений. Черепашки-ниндзя / Teenage Mutant Ninja Turtles [01-02x01-33 из 52] (2012-2014) WEB-DLRip-AVC 720p

378 | 137

18.78 ГБ

В этой теме нет новых непрочитанных сообщений. Черепашки-ниндзя / Черепашки Мутанты Ниндзя / Teenage Mutant Ninja Turtles [02x01-22] (2013-2014) WEB-DLRip

73 | 44

4.11 ГБ

В этой теме нет новых непрочитанных сообщений. Черепашки-ниндзя / Черепашки Мутанты Ниндзя / Teenage Mutant Ninja Turtles [03x01-06] (2014-2015) WEB-DLRip

547 | 66

1.19 ГБ

В этой теме нет новых непрочитанных сообщений. Черепашки-ниндзя / Черепашки Мутанты Ниндзя / Teenage Mutant Ninja Turtles [02x01-24] (2013-2014) WEB-DLRip

309 | 53

4.49 ГБ




Вы не можете начинать темы
Вы не можете отвечать на сообщения
Вы не можете редактировать свои сообщения
Вы не можете удалять свои сообщения
Вы не можете добавлять вложения

Перейти:  
Для Мосгорсуда, Роскомнадзора и рекламодателей: mosgorsud-torrent[собачка]yandex.ru
 Вход
ppkBB3cker v.2 © 2008-2014 @ PPK
[ Time : 0.043s | 15 Queries | GZIP : Off ]

cron