img image001 image001 image001 image001 image001 image001 image001 image001 image001 image001 image001 image001 image001 image001 image001

Planets Sun Sun Sun
Статистика раздачи
Автор: Снежана | Размер: 4.09 ГБ | Добавлен: 27 июл 2013
Раздают: 10    Качают: 4
Скачать торрент
Скачать торрент
Описание торрента

СообщениеДобавлено: 27 июл 2013 

#77

Информация о фильме
Название: Спасатели
Оригинальное название: The Rescuers
Год выхода: 1977
Жанр: драма, приключения, семейный, мультфильм, криминал
Режиссер: Джон Лоунсбери, Вольфганг Райтерман, Арт Стивенс
В ролях: Боб Ньюхарт, Ева Габор, Джеральдин Пейдж, Джо Флинн, Жанетт Нолан, Пэт Баттрем, Джим Джордан, Джон МакИнтайр, Мишель Стэйси, Бернард Фокс

О фильме:
В мультфильме студии Уолта Диснея команда спасателей в составе двух храбрых мышей отправляется на поиски пропавшей сироты по имени Пенни. Все начинается, когда бутылочное письмо Пенни с просьбой о помощи выбрасывается на берег и попадает в руки осторожному и хитрому Бернарду и его обаятельной помощнице Мисс Бианке.
Прочитав письмо спасатели не раздумывая отправились выручать Пенни, схваченную отвратительной Мадам Медузой. Но вначале Бернарду и Бианке нужно избежать острых как бритва зубов ручных крокодилов Медузы и проявить массу изобретательности, чтобы наконец достич цели....



Страна: США
Продолжительность: 01:17:13
Перевод: Дубляж + Профессиональный (многоголосый закадровый)

Файл
Кодек: H264
Качество: BDRip 1080p
Видео: 1792x1080, 6875 Kbps, 23,976 fps
Звук: 48 kHz, AC3, 2c, 320 kbps (Дубляж)
Звук: 248 kHz, AC3, 6c, 384 kbps Профессиональный (многоголосый закадровый)
Субтитры: Русские, английские

Семпл



Общее
Уникальный идентификатор : 190841697391305720347896797045676766899 (0x8F92C622873FCF35B5C85AD4CEBAF6B3)
Формат : Matroska
Версия формата : Version 4 / Version 2
Размер файла : 4,09 Гбайт
Продолжительность : 1 ч. 17 м.
Общий поток : 7584 Кбит/сек
Название фильма : The Rescuers (1977) BDRip 1080p от Dimok
Дата кодирования : UTC 2013-01-22 12:11:49
Программа кодирования : mkvmerge v6.0.0 ('Coming Up For Air') built on Jan 20 2013 09:52:00
Библиотека кодирования : libebml v1.3.0 + libmatroska v1.4.0

Видео
Идентификатор : 1
Формат : AVC
Формат/Информация : Advanced Video Codec
Профиль формата : High@L4.1
Параметр CABAC формата : Да
Параметр ReFrames формата : 4 кадра
Идентификатор кодека : V_MPEG4/ISO/AVC
Продолжительность : 1 ч. 17 м.
Битрейт : 6875 Кбит/сек
Ширина : 1792 пикселя
Высота : 1080 пикселей
Соотношение сторон : 1,659
Режим частоты кадров : Постоянный
Частота кадров : 23,976 кадра/сек
Цветовое пространство : YUV
Субдискретизация насыщенности : 4:2:0
Битовая глубина : 8 бит
Тип развёртки : Прогрессивная
Бит/(Пиксели*Кадры) : 0.148
Размер потока : 3,63 Гбайт (89%)
Библиотека кодирования : x264 core 92 r1510 33d382a
Настройки программы : cabac=1 / ref=4 / deblock=1:0:0 / analyse=0x3:0x133 / me=umh / subme=10 / psy=1 / psy_rd=1.00:0.10 / mixed_ref=1 / me_range=32 / chroma_me=1 / trellis=2 / 8x8dct=1 / cqm=0 / deadzone=21,11 / fast_pskip=0 / chroma_qp_offset=-3 / threads=12 / sliced_threads=0 / nr=0 / decimate=1 / interlaced=0 / constrained_intra=0 / bframes=3 / b_pyramid=2 / b_adapt=2 / b_bias=0 / direct=3 / wpredb=1 / wpredp=2 / keyint=240 / keyint_min=23 / scenecut=40 / intra_refresh=0 / rc_lookahead=70 / rc=2pass / mbtree=1 / bitrate=6875 / ratetol=1.0 / qcomp=0.64 / qpmin=10 / qpmax=51 / qpstep=4 / cplxblur=20.0 / qblur=0.5 / ip_ratio=1.40 / aq=1:1.00
Язык : English
Default : Да
Forced : Нет

Аудио #1
Идентификатор : 2
Формат : AC-3
Формат/Информация : Audio Coding 3
Профиль формата : Dolby Digital
Расширение режима : CM (complete main)
Параметр Endianness формата : Big
Идентификатор кодека : A_AC3
Продолжительность : 1 ч. 17 м.
Вид битрейта : Постоянный
Битрейт : 320 Кбит/сек
Каналы : 2 канала
Расположение каналов : Front: L R
Частота : 48,0 КГц
Битовая глубина : 16 бит
Метод сжатия : С потерями
Размер потока : 177 Мбайт (4%)
Заголовок : Дубляж
Язык : Russian
Default : Да
Forced : Нет

Аудио #2
Идентификатор : 3
Формат : AC-3
Формат/Информация : Audio Coding 3
Расширение режима : CM (complete main)
Параметр Endianness формата : Big
Идентификатор кодека : A_AC3
Продолжительность : 1 ч. 17 м.
Вид битрейта : Постоянный
Битрейт : 384 Кбит/сек
Каналы : 6 каналов
Расположение каналов : Front: L C R, Side: L R, LFE
Частота : 48,0 КГц
Битовая глубина : 16 бит
Метод сжатия : С потерями
Размер потока : 212 Мбайт (5%)
Заголовок : Профессиональный (многоголосый закадровый)
Язык : Russian
Default : Нет
Forced : Нет

Текст #1
Идентификатор : 4
Формат : UTF-8
Идентификатор кодека : S_TEXT/UTF8
Идентификатор кодека/Информация : UTF-8 Plain Text
Язык : Russian
Default : Да
Forced : Нет

Текст #2
Идентификатор : 5
Формат : UTF-8
Идентификатор кодека : S_TEXT/UTF8
Идентификатор кодека/Информация : UTF-8 Plain Text
Язык : English
Default : Нет
Forced : Нет

Меню
00:00:00.000 : :Chapter 01
00:04:17.674 : :Chapter 02
00:11:26.602 : :Chapter 03
00:14:06.011 : :Chapter 04
00:19:50.439 : :Chapter 05
00:23:57.352 : :Chapter 06
00:29:38.151 : :Chapter 07
00:32:37.497 : :Chapter 08
00:38:04.323 : :Chapter 09
00:42:13.322 : :Chapter 10
00:52:37.946 : :Chapter 11
00:55:21.985 : :Chapter 12
01:00:19.282 : :Chapter 13
01:09:11.939 : :Chapter 14
01:15:26.980 : :Chapter 15
01:17:13.545 : :Chapter 16



   Похожие торренты   Торрент   Размер 
В этой теме нет новых непрочитанных сообщений. Спасатели / The Rescuers (1977) BDRip от HQCLUB

62 | 6

1.46 ГБ

В этой теме нет новых непрочитанных сообщений. Спасатели / The Rescuers (1977) BDRip от Тorrent-Хzona | D

4 | 1

1.17 ГБ

В этой теме нет новых непрочитанных сообщений. Спасатели / The Rescuers (1977) BDRip-AVC от Тorrent-Хzona | D

29 | 5

1.19 ГБ

В этой теме нет новых непрочитанных сообщений. Спасатели / The Rescuers (1977) DVDRip

4 | 4

740.32 МБ

В этой теме нет новых непрочитанных сообщений. Спасатели / The Rescuers (1977) HDTV 1080i

1 | 2

6.72 ГБ

В этой теме нет новых непрочитанных сообщений. Спасатели / The Rescuers (1977) HDTVRip от ExKinoRay

7 | 4

1.09 ГБ

В этой теме нет новых непрочитанных сообщений. Спасатели в Австралии / The Rescuers Down Under (1990) BDRip 1080p

17 | 3

4.07 ГБ




Вы не можете начинать темы
Вы не можете отвечать на сообщения
Вы не можете редактировать свои сообщения
Вы не можете удалять свои сообщения
Вы не можете добавлять вложения

Перейти:  
Для Мосгорсуда, Роскомнадзора и рекламодателей: mosgorsud-torrent[собачка]yandex.ru
 Вход
ppkBB3cker v.2 © 2008-2014 @ PPK
[ Time : 0.575s | 15 Queries | GZIP : Off ]

Торрент трекер RUTOR.IN, Не можете зайти на rutor.org? Какой новый адрес рутор? Какое зеркало рутор? Не работает rutor.org и зеркала? Тогда наш торрент специально для вас. Rutor.in неофициальное зеркало rutor. В случае если у Вас заблокирован rutor или вдруг Вы не можете на него зайти, то Вы без труда сможете скачать бесплатно и без рекламы последние новинки кино, игр, сериалов и прочего у нас, на Rutor.in. Не нужно использовать прокси, чтобы зайти на рутор, достаточно воспользоваться нашим ресурсом. Все новые фильмы, игры, сериалы, книги и музыка за 2013 и 2014 годы через торрент бесплатно. Скачивайте фильмы в хорошем качестве, игры для пк, xbox, playstation без регистрации. У нас вы найдете новые Зарубежные сериалы и Русские сериалы 2013, 2014, 2015 годов. Оставайтесь с нами, качайте любимые фильмы, игры, сериалы, книги и музыку.
cron