img image001 image001 image001 image001 image001 image001 image001 image001 image001 image001 image001 image001 image001 image001 image001

Planets Sun Sun Sun
Статистика раздачи
Автор: Снежана | Размер: 8.13 ГБ | Добавлен: 27 июл 2013
Раздают: 7    Качают: 3
Скачать торрент
Скачать торрент
Описание торрента

СообщениеДобавлено: 27 июл 2013 

#77

Информация о фильме
Год выпуска: 2012
Страна: Испания
Жанр: мультфильм, приключения, семейный
Продолжительность: 1:31:55

Перевод: Профессиональный (дублированный)
Субтитры: русский
Оригинальная аудиодорожка: английский

Режиссер: Энрике Гато / Enrique Gato

Роли озвучивали: Оскар Барберан, Меритксель Ане, Карлес Канут, Фиона Глэскотт, Адам Джеймс, Мишель Хеннер, Мигель Анхель Дженнер, Энрикета Линарес, Мак МакДональд, Брюс Маккиннон...

Роли дублировали: Пётр Иващенко, Станислав Дужников, Федор Добронравов, Даниил Эльдаров, Марина Александрова...

Описание: Тэд — обычный чикагский строитель, страстно мечтающий о невероятных открытиях и опасных приключениях. Однажды его по ошибке принимают за известного археолога и отправляют в Перу на поиски сокровищ инков. Радости Тэда не было предела, но, похоже, она оказалась преждевременной…



Файл
Формат: MKV
Источник: Las aventuras de Tadeo Jones (2012) Blu-ray 3D 1080p AVC DTS-HD MA 5.1
Видео: 1920x1080 at 23.976 fps, x264@L4.1, crf, ~9384 kbps avg
Аудио#1: Russian: 48 kHz/16-bit, DTS, 3/2 (L,C,R,l,r) + LFE ch, ~1536 kbps avg |Дубляж|
Аудио#2: English: 48 kHz/16-bit, DTS, 3/2 (L,C,R,l,r) + LFE ch, ~1536 kbps avg
Субтитры: Russian

General
Unique ID : 243548139579236885176550480510253592323 (0xB739AA5DA76773558BBA0C431D50EF03)
Complete name : D:Las.aventuras.de.Tadeo.Jones.2012.1080р.BluRay.Rus.Eng.HDCLUB-xmad.mkv
Format : Matroska
Format version : Version 4 / Version 2
File size : 8.13 GiB
Duration : 1h 31mn
Overall bit rate : 12.7 Mbps
Movie name : Las aventuras de Tadeo Jones (2012) - Release for HDCLUB
Encoded date : UTC 2013-01-21 20:10:58
Writing application : mkvmerge v5.9.0 ('On The Loose') built on Dec 31 2012 17:36:59
Writing library : libebml v1.3.0 + libmatroska v1.4.0

Video
ID : 1
Format : AVC
Format/Info : Advanced Video Codec
Format profile : High@L4.1
Format settings, CABAC : Yes
Format settings, ReFrames : 4 frames
Codec ID : V_MPEG4/ISO/AVC
Duration : 1h 31mn
Bit rate : 9 384 Kbps
Width : 1 920 pixels
Height : 1 080 pixels
Display aspect ratio : 16:9
Frame rate : 23.976 fps
Color space : YUV
Chroma subsampling : 4:2:0
Bit depth : 8 bits
Scan type : Progressive
Bits/(Pixel*Frame) : 0.189
Stream size : 6.02 GiB (74%)
Title : Release for HDCLUB
Writing library : x264 core 129 r2245 bc13772
Encoding settings : cabac=1 / ref=4 / deblock=1:-1:-1 / analyse=0x3:0x133 / me=esa / subme=11 / psy=1 / psy_rd=1.00:0.00 / mixed_ref=1 / me_range=32 / chroma_me=1 / trellis=2 / 8x8dct=1 / cqm=0 / deadzone=21,11 / fast_pskip=0 / chroma_qp_offset=-2 / threads=12 / lookahead_threads=2 / sliced_threads=0 / nr=0 / decimate=1 / interlaced=0 / bluray_compat=0 / constrained_intra=0 / bframes=7 / b_pyramid=2 / b_adapt=2 / b_bias=0 / direct=3 / weightb=1 / open_gop=0 / weightp=2 / keyint=240 / keyint_min=24 / scenecut=40 / intra_refresh=0 / rc=crf / mbtree=0 / crf=17.7 / qcomp=0.60 / qpmin=0 / qpmax=69 / qpstep=4 / ip_ratio=1.40 / pb_ratio=1.30 / aq=1:0.80
Language : Spanish
Default : Yes
Forced : No
Color primaries : BT.709-5, BT.1361, IEC 61966-2-4, SMPTE RP177
Transfer characteristics : BT.709-5, BT.1361
Matrix coefficients : BT.709-5, BT.1361, IEC 61966-2-4 709, SMPTE RP177

Audio #1
ID : 2
Format : DTS
Format/Info : Digital Theater Systems
Codec ID : A_DTS
Duration : 1h 31mn
Bit rate mode : Constant
Bit rate : 1 510 Kbps
Channel(s) : 6 channels
Channel positions : Front: L C R, Side: L R, LFE
Sampling rate : 48.0 KHz
Bit depth : 16 bits
Compression mode : Lossy
Stream size : 993 MiB (12%)
Title : (DTS 5.1 @ 1510 kbps - Дубляж)
Language : Russian
Default : Yes
Forced : No

Audio #2
ID : 3
Format : DTS
Format/Info : Digital Theater Systems
Codec ID : A_DTS
Duration : 1h 31mn
Bit rate mode : Constant
Bit rate : 1 510 Kbps
Channel(s) : 6 channels
Channel positions : Front: L C R, Side: L R, LFE
Sampling rate : 48.0 KHz
Bit depth : 16 bits
Compression mode : Lossy
Stream size : 993 MiB (12%)
Title : (DTS 5.1 @ 1510 kbps - Дубляж)
Language : English
Default : No
Forced : No

Text
ID : 4
Format : UTF-8
Codec ID : S_TEXT/UTF8
Codec ID/Info : UTF-8 Plain Text
Title : SRT
Language : Russian
Default : No
Forced : No

Menu
00:00:00.000 : :Chapter 01
00:08:10.615 : :Chapter 02
00:15:26.634 : :Chapter 03
00:24:34.723 : :Chapter 04
00:31:40.148 : :Chapter 05
00:39:09.555 : :Chapter 06
00:44:20.908 : :Chapter 07
00:51:22.496 : :Chapter 08
00:58:46.773 : :Chapter 09
01:04:54.390 : :Chapter 10
01:14:49.610 : :Chapter 11
01:26:19.799 : :Chapter 12
01:31:51.047 : :Chapter 13


Скриншоты:



Релиз от:



   Похожие торренты   Торрент   Размер 
В этой теме нет новых непрочитанных сообщений. Тэд Джонс и Затерянный город / Las aventuras de Tadeo Jones (2012) Blu-ray 1080p от HDCLUB и Youtracker | D | 3D Video

0 | 1

25.49 ГБ

В этой теме нет новых непрочитанных сообщений. Тэд Джонс и Затерянный город / Las aventuras de Tadeo Jones (2012) BDRip 1080p

4 | 5

4.37 ГБ

В этой теме нет новых непрочитанных сообщений. Тэд Джонс и Затерянный город / Las aventuras de Tadeo Jones (2012) BDRip от Youtracker | D | лицензия

20 | 6

744.9 МБ

В этой теме нет новых непрочитанных сообщений. Тэд Джонс и Затерянный город / Las aventuras de Tadeo Jones (2012) BDRip-AVC от Youtracker | D | лицензия

17 | 1

1.74 ГБ

В этой теме нет новых непрочитанных сообщений. Тэд Джонс и Затерянный город / Las aventuras de Tadeo Jones (2012) BDRip от Youtracker | D | лицензия

46 | 3

1.74 ГБ

В этой теме нет новых непрочитанных сообщений. Тэд Джонс и Затерянный город / Las aventuras de Tadeo Jones (2012) BDRip 720p | Лицензия

12 | 1

4.66 ГБ

В этой теме нет новых непрочитанных сообщений. Тэд Джонс и Затерянный город / Las aventuras de Tadeo Jones (2012) BDRip 1080p от Youtracker

3 | 2

8.85 ГБ




Вы не можете начинать темы
Вы не можете отвечать на сообщения
Вы не можете редактировать свои сообщения
Вы не можете удалять свои сообщения
Вы не можете добавлять вложения

Перейти:  
Для Мосгорсуда, Роскомнадзора и рекламодателей: mosgorsud-torrent[собачка]yandex.ru
 Вход
ppkBB3cker v.2 © 2008-2014 @ PPK
[ Time : 0.021s | 15 Queries | GZIP : Off ]

Торрент трекер RUTOR.IN, Не можете зайти на rutor.org? Какой новый адрес рутор? Какое зеркало рутор? Не работает rutor.org и зеркала? Тогда наш торрент специально для вас. Rutor.in неофициальное зеркало rutor. В случае если у Вас заблокирован rutor или вдруг Вы не можете на него зайти, то Вы без труда сможете скачать бесплатно и без рекламы последние новинки кино, игр, сериалов и прочего у нас, на Rutor.in. Не нужно использовать прокси, чтобы зайти на рутор, достаточно воспользоваться нашим ресурсом. Все новые фильмы, игры, сериалы, книги и музыка за 2013 и 2014 годы через торрент бесплатно. Скачивайте фильмы в хорошем качестве, игры для пк, xbox, playstation без регистрации. У нас вы найдете новые Зарубежные сериалы и Русские сериалы 2013, 2014, 2015 годов. Оставайтесь с нами, качайте любимые фильмы, игры, сериалы, книги и музыку.