img image001 image001 image001 image001 image001 image001 image001 image001 image001 image001 image001 image001 image001 image001 image001

Planets Sun Sun Sun
Статистика раздачи
Автор: Снежана | Размер: 4.37 ГБ | Добавлен: 27 июл 2013
Раздают: 5    Качают: 2
Скачать торрент
Скачать торрент
Описание торрента

СообщениеДобавлено: 27 июл 2013 

Тэд Джонс и Затерянный город
Las aventuras de Tadeo Jones
(2012)
BDRip 1080p [Hi10P] от FREEISLAND




Жанр: мультфильм, приключения, семейный

Режиссер: Энрике Гато / Enrique Gato

Роли дублировали
Пётр Иващенко, Станислав Дужников, Федор Добронравов, Даниил Эльдаров, Марина Александрова...

Описание:
Тэд — обычный чикагский строитель, страстно мечтающий о невероятных открытиях и опасных приключениях. Однажды его по ошибке принимают за известного археолога и отправляют в Перу на поиски сокровищ инков. Радости Тэда не было предела, но, похоже, она оказалась преждевременной...



Официальный сайт

Страна: Испания
Выпущено: Telefónica Producciones, Ikiru Films, Lightbox Entertainment
Продолжительность: 1 ч. 27 м. 50 с. (титры обрезаны в целях экономии битрейта)
Перевод: Русский профессиональный (полное дублирование)
Оригинальная разбивка на главы: сохранена

Внимание!

Рип в High 10 Profile, в настоящее время не поддерживается большинством аппаратных проигрывателей.
Для корректного воспроизведения может потребоваться обновление ПО.
Владельцам несовместимого железа просьба не беспокоить, на трекере есть альтернативные релизы.

Качество: BDRip 1080p Hi10P (SSIM: 0.9844030)
Исходник: Blu-Ray Disc
Контейнер: MKV
Видео кодек: x264 High10@L5.1
Аудио кодек: DTS
Видео: AVC at 5620 Кбит/сек, 1920 x 1080 (1.778) at 23.976 fps
Аудио: DTS at 1510 Кбит/сек, 6 каналов, 48,0 КГц
Субтитры: русские, полные (SRT/UTF-8)


Общее
Уникальный идентификатор : 242387626041713282734615872702128848855 (0xB65A28A17F8A9892B21557ABE337FFD7)
Полное имя : Тэд Джонс и Затерянный город [Las aventuras de Tadeo Jones] (2012) BDRip-Hi10P 1080p by_F.HD.mkv
Формат : Matroska
Версия формата : Version 4 / Version 2
Размер файла : 4,37 Гбайт
Продолжительность : 1 ч. 27 м.
Общий поток : 7130 Кбит/сек
Название фильма : релиз от FREEISLAND.ORG
Дата кодирования : UTC 2013-01-23 17:08:32
Программа кодирования : mkvmerge v5.9.0 ('On The Loose') built on Dec 31 2012 17:36:59
Библиотека кодирования : libebml v1.3.0 + libmatroska v1.4.0

Видео
Идентификатор : 1
Формат : AVC
Формат/Информация : Advanced Video Codec
Профиль формата : High 10@L5.1
Параметр CABAC формата : Да
Параметр ReFrames формата : 16 кадров
Идентификатор кодека : V_MPEG4/ISO/AVC
Продолжительность : 1 ч. 27 м.
Битрейт : 5620 Кбит/сек
Ширина : 1920 пикселей
Высота : 1080 пикселей
Соотношение сторон : 16:9
Частота кадров : 23,976 кадра/сек
Цветовое пространство : YUV
Субдискретизация насыщенности : 4:2:0
Битовая глубина : 10 бит
Тип развёртки : Прогрессивная
Бит/(Пиксели*Кадры) : 0.113
Размер потока : 3,36 Гбайт (77%)
Библиотека кодирования : x264 core 129 r2245+704+35 dbbd7a1 tMod [10-bit@all X86_64]
Настройки программы : cabac=1 / ref=16 / deblock=1:1:1 / analyse=0x3:0x133 / me=umh / subme=11 / psy=1 / fade_compensate=0.00 / psy_rd=1.00:0.15 / mixed_ref=1 / me_range=64 / chroma_me=1 / trellis=2 / 8x8dct=1 / cqm=0 / deadzone=21,11 / fast_pskip=0 / chroma_qp_offset=-3 / threads=12 / lookahead_threads=2 / sliced_threads=0 / nr=0 / decimate=1 / interlaced=0 / bluray_compat=0 / constrained_intra=0 / fgo=0 / bframes=10 / b_pyramid=2 / b_adapt=2 / b_bias=0 / direct=3 / weightb=1 / open_gop=0 / weightp=2 / keyint=270 / keyint_min=21 / scenecut=40 / intra_refresh=0 / rc_lookahead=0 / rc=2pass / mbtree=0 / bitrate=5620 / ratetol=1.0 / qcomp=1.00 / qpmin=0 / qpmax=48 / qpstep=4 / cplxblur=20.0 / qblur=0.5 / vbv_maxrate=240000 / vbv_bufsize=240000 / nal_hrd=none / ip_ratio=1.40 / pb_ratio=1.30 / aq=4:0.80
Default : Да
Forced : Нет
Основные цвета : BT.709-5, BT.1361, IEC 61966-2-4, SMPTE RP177
Характеристики трансфера : BT.709-5, BT.1361
Коэффициенты матрицы : BT.709-5, BT.1361, IEC 61966-2-4 709, SMPTE RP177

Аудио
Идентификатор : 2
Формат : DTS
Формат/Информация : Digital Theater Systems
Идентификатор кодека : A_DTS
Продолжительность : 1 ч. 27 м.
Вид битрейта : Постоянный
Битрейт : 1510 Кбит/сек
Каналы : 6 каналов
Расположение каналов : Front: L C R, Side: L R, LFE
Частота : 48,0 КГц
Битовая глубина : 24 бит
Метод сжатия : С потерями
Размер потока : 948 Мбайт (21%)
Заголовок : DUB
Язык : Russian
Default : Да
Forced : Нет

Текст
Идентификатор : 3
Формат : UTF-8
Идентификатор кодека : S_TEXT/UTF8
Идентификатор кодека/Информация : UTF-8 Plain Text
Заголовок : Full
Язык : Russian
Default : Нет
Forced : Нет

Меню
00:00:00.000 : :01
00:07:49.594 : :02
00:15:05.780 : :03
00:24:13.702 : :04
00:31:19.127 : :05
00:38:47.534 : :06
00:43:59.887 : :07
00:51:01.475 : :08
00:58:25.752 : :09
01:04:33.369 : :10
01:14:28.589 : :11
01:25:58.779 : :12













СЭМПЛ

Релиз от:

Если у вас возникают вопросы типа:
-почему у меня есть звук и отсутствует изображение?
-почему у меня рассыпается картинка?
-почему у меня картинка фонит синевой или зеленью?
-зачем и кому всё это нужно?
и тому подобные, читаем FAQ.
ссылка на FAQ запрещена правилами.

По этому, гуглим на тему спойлера (Что такое 10-ти битное видео (High 10 Profile - Hi10P), и как его смотреть?).



   Похожие торренты   Торрент   Размер 
В этой теме нет новых непрочитанных сообщений. Тэд Джонс и Затерянный город / Las aventuras de Tadeo Jones (2012) BDRip 1080p

4 | 5

4.37 ГБ

В этой теме нет новых непрочитанных сообщений. Тэд Джонс и Затерянный город / Las aventuras de Tadeo Jones (2012) BDRip 1080p от Youtracker

3 | 2

8.85 ГБ

В этой теме нет новых непрочитанных сообщений. Тэд Джонс и Затерянный город / Las aventuras de Tadeo Jones (2012) BDRip 1080p от HDClub | Лицензия

7 | 3

8.13 ГБ

В этой теме нет новых непрочитанных сообщений. Тэд Джонс и Затерянный город / Las aventuras de Tadeo Jones (2012) BDRip 1080p от Youtracker | 3D-Video

35 | 3

9.04 ГБ

В этой теме нет новых непрочитанных сообщений. Тэд Джонс и Затерянный город / Las aventuras de Tadeo Jones (2012) Blu-Ray Remux 1080p | D

1 | 1

17.33 ГБ

В этой теме нет новых непрочитанных сообщений. Тэд Джонс и Затерянный город / Las aventuras de Tadeo Jones (2012) Blu-ray 1080p от HDCLUB и Youtracker | D | 3D Video

0 | 1

25.49 ГБ

В этой теме нет новых непрочитанных сообщений. Тэд Джонс и Затерянный город / Las aventuras de Tadeo Jones (2012) BDRip-AVC | iPad

1 | 1

2.01 ГБ




Вы не можете начинать темы
Вы не можете отвечать на сообщения
Вы не можете редактировать свои сообщения
Вы не можете удалять свои сообщения
Вы не можете добавлять вложения

Перейти:  
Для Мосгорсуда, Роскомнадзора и рекламодателей: mosgorsud-torrent[собачка]yandex.ru
 Вход
ppkBB3cker v.2 © 2008-2014 @ PPK
[ Time : 0.049s | 15 Queries | GZIP : On ]

Торрент трекер RUTOR.IN, Не можете зайти на rutor.org? Какой новый адрес рутор? Какое зеркало рутор? Не работает rutor.org и зеркала? Тогда наш торрент специально для вас. Rutor.in неофициальное зеркало rutor. В случае если у Вас заблокирован rutor или вдруг Вы не можете на него зайти, то Вы без труда сможете скачать бесплатно и без рекламы последние новинки кино, игр, сериалов и прочего у нас, на Rutor.in. Не нужно использовать прокси, чтобы зайти на рутор, достаточно воспользоваться нашим ресурсом. Все новые фильмы, игры, сериалы, книги и музыка за 2013 и 2014 годы через торрент бесплатно. Скачивайте фильмы в хорошем качестве, игры для пк, xbox, playstation без регистрации. У нас вы найдете новые Зарубежные сериалы и Русские сериалы 2013, 2014, 2015 годов. Оставайтесь с нами, качайте любимые фильмы, игры, сериалы, книги и музыку.