img image001 image001 image001 image001 image001 image001 image001 image001 image001 image001 image001 image001 image001 image001 image001

Planets Sun Sun Sun
Статистика раздачи
Автор: Снежана | Размер: 4.07 ГБ | Добавлен: 27 июл 2013
Раздают: 17    Качают: 3
Скачать торрент
Скачать торрент
Описание торрента

СообщениеДобавлено: 27 июл 2013 

#77

Информация о фильме
Название: Спасатели в Австралии
Оригинальное название: The Rescuers Down Under
Год выхода: 1990
Жанр: драма, приключения, семейный, мультфильм, криминал
Режиссер: Хендел Бутой, Майк Гэбриел
В ролях: Боб Ньюхарт, Ева Габор, Джон Кэнди, Тристан Роджерс, Адам Райен, Джордж К. Скотт, Дуглас Сил, Фрэнк Уэлкер, Бернард Фокс, Питер Фёрт...

О фильме:
Далеко в необъятных и непредсказуемых прериях Австралии мальчик по имени Коди подружился с великим золотым орлом. Когда безжалостный браконьер решает поймать орла, Коди вступает на защиту друга. Зная, что ему не справиться в одиночку, он подает зов помощи, на который сразу реагируют две самые храбрые мышки Бернард и Бьянка. Спеша на помощь на крыльях своего веселого друга, альбатроса Вилбура, эти два суперагента готовы выполнить свою самую большую и самую опасную миссию!....



Страна: США
Продолжительность: 01:17:08
Перевод: Дубляж

Файл
Кодек: H264
Качество: BDRip 1080p
Видео: 1808x1080, 7243 Kbps, 23,976 fps
Звук: 48 kHz, AC3, 2c, 320 kbps (Дубляж)
Субтитры: Русские, английские

Семпл

[

Общее
Уникальный идентификатор : 230264106508725310329994824382887317350 (0xAD3B40F8018F024BB1FBB182EE294F66)
Формат : Matroska
Версия формата : Version 4 / Version 2
Размер файла : 4,07 Гбайт
Продолжительность : 1 ч. 17 м.
Общий поток : 7560 Кбит/сек
Название фильма : The Rescuers Down Under (1990) BDRip 1080p от Dimok
Дата кодирования : UTC 2013-01-24 08:35:05
Программа кодирования : mkvmerge v6.0.0 ('Coming Up For Air') built on Jan 20 2013 09:52:00
Библиотека кодирования : libebml v1.3.0 + libmatroska v1.4.0

Видео
Идентификатор : 1
Формат : AVC
Формат/Информация : Advanced Video Codec
Профиль формата : High@L4.1
Параметр CABAC формата : Да
Параметр ReFrames формата : 4 кадра
Идентификатор кодека : V_MPEG4/ISO/AVC
Продолжительность : 1 ч. 17 м.
Битрейт : 7243 Кбит/сек
Ширина : 1808 пикселей
Высота : 1080 пикселей
Соотношение сторон : 1,674
Режим частоты кадров : Постоянный
Частота кадров : 23,976 кадра/сек
Цветовое пространство : YUV
Субдискретизация насыщенности : 4:2:0
Битовая глубина : 8 бит
Тип развёртки : Прогрессивная
Бит/(Пиксели*Кадры) : 0.155
Размер потока : 3,82 Гбайт (94%)
Библиотека кодирования : x264 core 92 r1510 33d382a
Настройки программы : cabac=1 / ref=4 / deblock=1:0:0 / analyse=0x3:0x133 / me=umh / subme=10 / psy=1 / psy_rd=1.00:0.10 / mixed_ref=1 / me_range=32 / chroma_me=1 / trellis=2 / 8x8dct=1 / cqm=0 / deadzone=21,11 / fast_pskip=0 / chroma_qp_offset=-3 / threads=12 / sliced_threads=0 / nr=0 / decimate=1 / interlaced=0 / constrained_intra=0 / bframes=3 / b_pyramid=2 / b_adapt=2 / b_bias=0 / direct=3 / wpredb=1 / wpredp=2 / keyint=240 / keyint_min=23 / scenecut=40 / intra_refresh=0 / rc_lookahead=70 / rc=2pass / mbtree=1 / bitrate=7243 / ratetol=1.0 / qcomp=0.64 / qpmin=10 / qpmax=51 / qpstep=4 / cplxblur=20.0 / qblur=0.5 / ip_ratio=1.40 / aq=1:1.00
Язык : English
Default : Да
Forced : Нет

Аудио
Идентификатор : 2
Формат : AC-3
Формат/Информация : Audio Coding 3
Профиль формата : Dolby Digital
Расширение режима : CM (complete main)
Параметр Endianness формата : Big
Идентификатор кодека : A_AC3
Продолжительность : 1 ч. 17 м.
Вид битрейта : Постоянный
Битрейт : 320 Кбит/сек
Каналы : 2 канала
Расположение каналов : Front: L R
Частота : 48,0 КГц
Битовая глубина : 16 бит
Метод сжатия : С потерями
Размер потока : 177 Мбайт (4%)
Заголовок : Дубляж
Язык : Russian
Default : Да
Forced : Нет

Текст #1
Идентификатор : 3
Формат : UTF-8
Идентификатор кодека : S_TEXT/UTF8
Идентификатор кодека/Информация : UTF-8 Plain Text
Заголовок : RUS
Язык : Russian
Default : Нет
Forced : Нет

Текст #2
Идентификатор : 4
Формат : UTF-8
Идентификатор кодека : S_TEXT/UTF8
Идентификатор кодека/Информация : UTF-8 Plain Text
Заголовок : ENG
Язык : English
Default : Нет
Forced : Нет

Меню
00:00:00.000 : :Chapter 1
00:05:24.652 : :Chapter 2
00:10:35.478 : :Chapter 3
00:15:58.357 : :Chapter 4
00:20:48.125 : :Chapter 5
00:25:26.451 : :Chapter 6
00:30:35.852 : :Chapter 7
00:35:54.952 : :Chapter 8
00:40:45.587 : :Chapter 9
00:45:27.652 : :Chapter 10
00:50:52.625 : :Chapter 11
00:55:15.364 : :Chapter 12
01:00:36.852 : :Chapter 14
01:05:32.752 : :Chapter 15
01:10:48.362 : :Chapter 16
01:15:24.625 : :Chapter 17



   Похожие торренты   Торрент   Размер 
В этой теме нет новых непрочитанных сообщений. Спасатели в Австралии / The Rescuers Down Under (1990) BDRip-AVC от potroks | D

1 | 3

2.22 ГБ

В этой теме нет новых непрочитанных сообщений. Спасатели в Австралии / The Rescuers Down Under (1990) BDRip от HQCLUB

81 | 3

1.46 ГБ

В этой теме нет новых непрочитанных сообщений. Спасатели в Австралии / The Rescuers Down (1990) BDRip-AVC от Leonardo and Scarabey

29 | 2

2.18 ГБ

В этой теме нет новых непрочитанных сообщений. Спасатели в Австралии / The Rescuers Down Under (1990) BDRip-AVC от Тorrent-Хzona

46 | 5

1.12 ГБ

В этой теме нет новых непрочитанных сообщений. Спасатели в Австралии / The Rescuers Down (1990) BDRip 720p от Leonardo and Scarabey

20 | 4

3.83 ГБ

В этой теме нет новых непрочитанных сообщений. Спасатели в Австралии / The Rescuers Down Under (1990) DVDRip от ExKinoRay

1 | 3

1.02 ГБ

В этой теме нет новых непрочитанных сообщений. Спасатели в Австралии / The Rescuers Down Under (1990) HDTV 720p

4 | 1

4.19 ГБ




Вы не можете начинать темы
Вы не можете отвечать на сообщения
Вы не можете редактировать свои сообщения
Вы не можете удалять свои сообщения
Вы не можете добавлять вложения

Перейти:  
Для Мосгорсуда, Роскомнадзора и рекламодателей: mosgorsud-torrent[собачка]yandex.ru
 Вход
ppkBB3cker v.2 © 2008-2014 @ PPK
[ Time : 0.043s | 15 Queries | GZIP : Off ]

Торрент трекер RUTOR.IN, Не можете зайти на rutor.org? Какой новый адрес рутор? Какое зеркало рутор? Не работает rutor.org и зеркала? Тогда наш торрент специально для вас. Rutor.in неофициальное зеркало rutor. В случае если у Вас заблокирован rutor или вдруг Вы не можете на него зайти, то Вы без труда сможете скачать бесплатно и без рекламы последние новинки кино, игр, сериалов и прочего у нас, на Rutor.in. Не нужно использовать прокси, чтобы зайти на рутор, достаточно воспользоваться нашим ресурсом. Все новые фильмы, игры, сериалы, книги и музыка за 2013 и 2014 годы через торрент бесплатно. Скачивайте фильмы в хорошем качестве, игры для пк, xbox, playstation без регистрации. У нас вы найдете новые Зарубежные сериалы и Русские сериалы 2013, 2014, 2015 годов. Оставайтесь с нами, качайте любимые фильмы, игры, сериалы, книги и музыку.
cron