img image001 image001 image001 image001 image001 image001 image001 image001 image001 image001 image001 image001 image001 image001 image001

Planets Sun Sun Sun
Статистика раздачи
Автор: Снежана | Размер: 2.64 ГБ | Добавлен: 27 июл 2013
Раздают: 125    Качают: 9
Скачать торрент
Скачать торрент
Описание торрента

СообщениеДобавлено: 27 июл 2013 

#77

Монстры на каникулах / Hotel Transylvania (2012)
BDRip 720p от DHT-Movies

Название: Монстры на каникулах
Оригинальное название: Hotel Transylvania
Год выхода: 2012
Жанр: мультфильм, комедия, семейный
Режиссер: Генндий Тартаковский



В ролях:

Адам Сэндлер, Селена Гомес, Энди Сэмберг, Стив Бушеми, Кевин Джеймс, Дэвид Спейд, Фрэн Дрешер, Джон Ловиц, Молли Шеннон, Си-Ло

Описание:

Граф Дракула для себя и своей любимой дочки построил хорошо укрытый от посторонних глаз отель, куда монстры со всего света приезжают отдохнуть от семейных забот, повседневной суеты и, конечно… людей. Но вездесущие американские туристы проникают и сюда.


Страна: США
Продолжительность: 01:31:31
Перевод: Дубляж (Профессиональный[R5]) + Оригинал (Английский)
Субтитры: Английские UTF-8 (full)

Релиз группа: | by AVT83


Качество: BDRip 720p | Hotel.Transylvania.2012.BluRay.1080p.AVC.DTS-HD.MA5.1-CHDBits
Формат: MKV
Видео кодек: H.264
Видео: 1280x688/1.85:1/23.976 fps/3 488 Kbps/0.165 Bits/(Pixel*Frame)
Аудио (Русский): 48 kHz, AC3 Dolby Digital, 2/0 (L,R) ch, ~192 kbps avg | ( Дубляж)
Аудио (Английский): 48 kHz, AC3 Dolby Digital, 3/2 (L,C,R,l,r) + LFE ch, ~ 448 kbps avg | (Оригинал)



avs [info]: 1280x688p 1:1 @ 2500000/104271 fps (cfr)
x264 [info]: using SAR=1/1
x264 [info]: using cpu capabilities: MMX2 SSE2Fast SSSE3 FastShuffle SSE4.2
x264 [info]: profile High, level 4.1
x264 [info]: frame I:1056 Avg QP:13.65 size:149835
x264 [info]: frame P:35277 Avg QP:17.80 size: 36321
x264 [info]: frame B:95331 Avg QP:20.76 size: 10015
x264 [info]: consecutive B-frames: 6.0% 5.5% 7.3% 35.6% 14.8% 15.3% 4.4% 9.6% 0.7% 0.4% 0.4%
x264 [info]: mb I I16..4: 8.7% 66.5% 24.7%
x264 [info]: mb P I16..4: 2.3% 15.1% 2.2% P16..4: 31.7% 31.2% 9.6% 0.0% 0.0% skip: 7.9%
x264 [info]: mb B I16..4: 0.2% 1.9% 0.3% B16..8: 30.3% 14.7% 2.2% direct: 3.8% skip:46.7% L0:43.0% L1:47.2% BI: 9.8%
x264 [info]: 8x8 transform intra:76.5% inter:59.9%
x264 [info]: direct mvs spatial:98.1% temporal:1.9%
x264 [info]: coded y,uvDC,uvAC intra: 85.4% 82.0% 56.2% inter: 18.8% 16.8% 7.3%
x264 [info]: i16 v,h,dc,p: 8% 8% 7% 77%
x264 [info]: i8 v,h,dc,ddl,ddr,vr,hd,vl,hu: 9% 9% 5% 10% 13% 13% 14% 13% 15%
x264 [info]: i4 v,h,dc,ddl,ddr,vr,hd,vl,hu: 11% 10% 5% 9% 15% 14% 14% 11% 13%
x264 [info]: i8c dc,h,v,p: 34% 25% 20% 22%
x264 [info]: Weighted P-Frames: Y:5.6% UV:3.8%
x264 [info]: ref P L0: 50.6% 8.4% 17.2% 6.4% 5.2% 3.9% 3.6% 2.0% 2.1% 0.5% 0.0%
x264 [info]: ref B L0: 73.6% 11.4% 6.1% 3.1% 2.3% 1.9% 1.1% 0.4%
x264 [info]: ref B L1: 92.3% 7.7%
x264 [info]: kb/s:3487.99

x264 [total]: encoded 131664 frames, 3.92 fps, 3487.99 kb/s
--------------------------------------------------------------------------------
Format : Matroska
Format version : Version 2
File size : 2.64 GiB
Duration : 1h 31mn
Overall bit rate : 4 130 Kbps
Movie name : avt83@DHT-Movies
Encoded date : UTC 2013-01-24 13:18:13
Writing application : mkvmerge v4.0.0 ('The Stars were mine') built on Jun 6 2010 16:18:42
Writing library : libebml v1.0.0 + libmatroska v1.0.0

Video
ID : 1
Format : AVC
Format/Info : Advanced Video Codec
Format profile : High@L4.1
Format settings, CABAC : Yes
Format settings, ReFrames : 9 frames
Codec ID : V_MPEG4/ISO/AVC
Duration : 1h 31mn
Bit rate : 3 488 Kbps
Width : 1 280 pixels
Height : 688 pixels
Display aspect ratio : 1.85:1
Frame rate : 23.976 fps
Color space : YUV
Chroma subsampling : 4:2:0
Bit depth : 8 bits
Scan type : Progressive
Bits/(Pixel*Frame) : 0.165
Stream size : 2.18 GiB (83%)
Writing library : x264 core 119 r2106 07efeb4
Encoding settings : cabac=1 / ref=9 / deblock=1:-1:-1 / analyse=0x3:0x113 / me=umh / subme=11 / psy=1 / psy_rd=0.85:0.10 / mixed_ref=1 / me_range=32 / chroma_me=1 / trellis=2 / 8x8dct=1 / cqm=0 / deadzone=21,11 / fast_pskip=0 / chroma_qp_offset=-3 / threads=6 / sliced_threads=0 / nr=0 / decimate=0 / interlaced=0 / bluray_compat=0 / constrained_intra=0 / bframes=10 / b_pyramid=2 / b_adapt=2 / b_bias=0 / direct=3 / weightb=1 / open_gop=0 / weightp=2 / keyint=240 / keyint_min=24 / scenecut=40 / intra_refresh=0 / rc_lookahead=45 / rc=2pass / mbtree=1 / bitrate=3488 / ratetol=1.0 / qcomp=0.70 / qpmin=0 / qpmax=69 / qpstep=4 / cplxblur=20.0 / qblur=0.5 / ip_ratio=1.40 / aq=1:0.90
Language : English
Default : No
Forced : No

Audio #1
ID : 2
Format : AC-3
Format/Info : Audio Coding 3
Mode extension : CM (complete main)
Format settings, Endianness : Big
Codec ID : A_AC3
Duration : 1h 31mn
Bit rate mode : Constant
Bit rate : 192 Kbps
Channel(s) : 2 channels
Channel positions : Front: L R
Sampling rate : 48.0 KHz
Bit depth : 16 bits
Compression mode : Lossy
Stream size : 126 MiB (5%)
Title : Дубляж R5
Language : Russian
Default : Yes
Forced : No

Audio #2
ID : 3
Format : AC-3
Format/Info : Audio Coding 3
Mode extension : CM (complete main)
Format settings, Endianness : Big
Codec ID : A_AC3
Duration : 1h 31mn
Bit rate mode : Constant
Bit rate : 448 Kbps
Channel(s) : 6 channels
Channel positions : Front: L C R, Side: L R, LFE
Sampling rate : 48.0 KHz
Bit depth : 16 bits
Compression mode : Lossy
Stream size : 293 MiB (11%)
Title : Оригинал
Language : English
Default : No
Forced : No

Text
ID : 4
Format : UTF-8
Codec ID : S_TEXT/UTF8
Codec ID/Info : UTF-8 Plain Text
Title : full
Language : English
Default : Yes
Forced : No




   Похожие торренты   Торрент   Размер 
В этой теме нет новых непрочитанных сообщений. Монстры на каникулах / Hotel Transylvania (2012) BDRip 720p | 60 FPS

992 | 52

3.21 ГБ

В этой теме нет новых непрочитанных сообщений. Монстры на Каникулах / Hotel Transylvania (2012) BDRip-720p | Дополнительные материалы

31 | 21

1.12 ГБ

В этой теме нет новых непрочитанных сообщений. Монстры на каникулах / Hotel Transylvania (2012) BDRip 720p от Youtracker | D | лицензия

265 | 8

5.13 ГБ

В этой теме нет новых непрочитанных сообщений. Монстры на каникулах / Hotel Transylvania (2012) BDRip 720p от HQ-ViDEO | Лицензия

299 | 23

4.43 ГБ

В этой теме нет новых непрочитанных сообщений. Монстры на каникулах / Hotel Transylvania (2012) BDRip 720p от NoLimits-Team

356 | 25

2.19 ГБ

В этой теме нет новых непрочитанных сообщений. Монстры на каникулах / Hotel Transylvania (2012) BDRip-AVC

600 | 35

745.03 МБ

В этой теме нет новых непрочитанных сообщений. Монстры на каникулах: Дилогия / Hotel Transylvania: Dilogy (2012-2015) BDRip 720p от HELLYWOOD | Лицензия

420 | 230

7.96 ГБ




Вы не можете начинать темы
Вы не можете отвечать на сообщения
Вы не можете редактировать свои сообщения
Вы не можете удалять свои сообщения
Вы не можете добавлять вложения

Перейти:  
Для Мосгорсуда, Роскомнадзора и рекламодателей: mosgorsud-torrent[собачка]yandex.ru
 Вход
ppkBB3cker v.2 © 2008-2014 @ PPK
[ Time : 0.103s | 14 Queries | GZIP : Off ]

Торрент трекер RUTOR.IN, Не можете зайти на rutor.org? Какой новый адрес рутор? Какое зеркало рутор? Не работает rutor.org и зеркала? Тогда наш торрент специально для вас. Rutor.in неофициальное зеркало rutor. В случае если у Вас заблокирован rutor или вдруг Вы не можете на него зайти, то Вы без труда сможете скачать бесплатно и без рекламы последние новинки кино, игр, сериалов и прочего у нас, на Rutor.in. Не нужно использовать прокси, чтобы зайти на рутор, достаточно воспользоваться нашим ресурсом. Все новые фильмы, игры, сериалы, книги и музыка за 2013 и 2014 годы через торрент бесплатно. Скачивайте фильмы в хорошем качестве, игры для пк, xbox, playstation без регистрации. У нас вы найдете новые Зарубежные сериалы и Русские сериалы 2013, 2014, 2015 годов. Оставайтесь с нами, качайте любимые фильмы, игры, сериалы, книги и музыку.