img image001 image001 image001 image001 image001 image001 image001 image001 image001 image001 image001 image001 image001 image001 image001

Planets Sun Sun Sun
Статистика раздачи
Автор: Снежана | Размер: 697.06 МБ | Добавлен: 27 июл 2013
Раздают: 4    Качают: 3
Скачать торрент
Скачать торрент
Описание торрента

СообщениеДобавлено: 27 июл 2013 

#77

Название: Братва из джунглей
Оригинальное название: Delhi Safari
Год выпуска: 2012
Жанр: Мюзикл, семейный, мультфильм
Режиссер: Никхил Адвани
В ролях: Говинда, Акшай Кханна, Урмила Матондкар, Боман Ирани, Сунил Шетти, Шиварна Митра, Свини Кхера, Саурабх Шукла, Прем Чопра, Санджай Мишра

«Давно не были в джунглях? Тогда мы идем к вам!»

Описание: Животные — обитатели национального парка возле Бомбея — встречают яркое солнечное утро под пение птиц. И вдруг идиллическую картинку дикой природы нарушает страшный грохот. Это, круша все на своем пути, джунгли атакует человек на бульдозере. На месте прекрасной рощи люди водружают табличку: здесь идет строительство жилого комплекса. Смертельно напуганные звери ночью собираются на совет. Юный леопард Юви горячо убеждает взрослых не бросать свои жилища. «Горячая голова» воин-обезьяна, Бахранжи, готов объявить смертельную войну незваным гостям, но Гуру в области конфликтологии, медведь Багга предлагает договориться с людьми по-хорошему. Одомашненный говорящий попугай Алекс решает присоединиться к друзьям, чтобы выступить переводчиком. Разношерстная компания пускается в долгое путешествие в столицу. Через горы и реки, на поездах и грузовиках, чтобы найти Главного Начальника и передать ему свое прошение. По дороге выясняется, что не только их дома, но и жилища тысяч других животных находятся в опасности. В финале захватывающего приключения различные животные становятся друзьями, поскольку их объединяет борьба за общий ДОМ.



Страна: Индия / Krayon Pictures
Продолжительность: 01:32:37
Перевод: Профессиональный (многоголосый, закадровый)
Субтитры: Нет



Качество: DVDRip
Формат: AVI
Видео: XviD, 912 kb/s, 640x272
Аудио: MP3, 128 kb/s 2 ch

Формат : AVI
Формат/Информация : Audio Video Interleave
Размер файла : 697 Мбайт
Продолжительность : 1 ч. 32 м.
Общий поток : 1052 Кбит/сек
Программа кодирования : Lavf54.25.104

Видео
Идентификатор : 0
Формат : MPEG-4 Visual
Профиль формата : Simple@L3
Параметр BVOP формата : Нет
Параметр QPel формата : Нет
Параметр GMC формата : Без точки перехода
Параметр матрицы формата : Default (H.263)
Идентификатор кодека : XVID
Идентификатор кодека/Подсказка : XviD
Продолжительность : 1 ч. 32 м.
Битрейт : 912 Кбит/сек
Ширина : 640 пикс.
Высота : 272 пикс.
Соотношение сторон : 2,35:1
Частота кадров : 23,976 кадр/сек
Цветовое пространство : YUV
Подвыборка цветности : 4:2:0
Битовая глубина : 8 бит
Тип развёртки : Прогрессивная
Метод сжатия : С потерями
Бит/(Пиксели*Кадры) : 0.218
Размер потока : 604 Мбайт (87%)
Библиотека кодирования : XviD 64

Аудио
Идентификатор : 1
Формат : MPEG Audio
Версия формата : Version 1
Профиль формата : Layer 3
Идентификатор кодека : 55
Идентификатор кодека/Подсказка : MP3
Продолжительность : 1 ч. 32 м.
Вид битрейта : Постоянный
Битрейт : 128 Кбит/сек
Каналы : 2 канала
Частота : 48,0 КГц
Метод сжатия : С потерями
Размер потока : 84,8 Мбайт (12%)
Выравнивание : Соединение по промежуткам
Продолжительность промежутка : 24 мс. (0,58 видеокадр)
Время предзагрузки промежутка : 24 ms
Библиотека кодирования : LAME3.99.5



   Похожие торренты   Торрент   Размер 
В этой теме нет новых непрочитанных сообщений. Братва из джунглей / Delhi Safari (2012) DVDRip от ICG & Generalfilm | КПК

4 | 2

317.94 МБ

В этой теме нет новых непрочитанных сообщений. Братва из джунглей / Delhi Safari (2012) DVDRip от ICG & Generalfilm | L

157 | 11

1.45 ГБ

В этой теме нет новых непрочитанных сообщений. Братва из джунглей / Delhi Safari (2012) DVDRip от Youtracker | D | лицензия

28 | 4

1.46 ГБ

В этой теме нет новых непрочитанных сообщений. Братва из джунглей / Delhi Safari (2012) DVDRip от Youtracker | D | лицензия

9 | 4

744.89 МБ

В этой теме нет новых непрочитанных сообщений. Братва из джунглей / Delhi Safari (2012) DVDRip-AVC от Youtracker | D | лицензия

13 | 9

1.46 ГБ

В этой теме нет новых непрочитанных сообщений. Братва из джунглей / Delhi Safari (2012) HDRip

66 | 10

1.46 ГБ

В этой теме нет новых непрочитанных сообщений. Братва из джунглей / Delhi Safari (2012) DVD5 R5 от Youtracker | D | лицензия

4 | 3

4.33 ГБ




Вы не можете начинать темы
Вы не можете отвечать на сообщения
Вы не можете редактировать свои сообщения
Вы не можете удалять свои сообщения
Вы не можете добавлять вложения

Перейти:  
Для Мосгорсуда, Роскомнадзора и рекламодателей: mosgorsud-torrent[собачка]yandex.ru
 Вход
ppkBB3cker v.2 © 2008-2014 @ PPK
[ Time : 0.022s | 14 Queries | GZIP : Off ]

Торрент трекер RUTOR.IN, Не можете зайти на rutor.org? Какой новый адрес рутор? Какое зеркало рутор? Не работает rutor.org и зеркала? Тогда наш торрент специально для вас. Rutor.in неофициальное зеркало rutor. В случае если у Вас заблокирован rutor или вдруг Вы не можете на него зайти, то Вы без труда сможете скачать бесплатно и без рекламы последние новинки кино, игр, сериалов и прочего у нас, на Rutor.in. Не нужно использовать прокси, чтобы зайти на рутор, достаточно воспользоваться нашим ресурсом. Все новые фильмы, игры, сериалы, книги и музыка за 2013 и 2014 годы через торрент бесплатно. Скачивайте фильмы в хорошем качестве, игры для пк, xbox, playstation без регистрации. У нас вы найдете новые Зарубежные сериалы и Русские сериалы 2013, 2014, 2015 годов. Оставайтесь с нами, качайте любимые фильмы, игры, сериалы, книги и музыку.