img image001 image001 image001 image001 image001 image001 image001 image001 image001 image001 image001 image001 image001 image001 image001

Planets Sun Sun Sun
Статистика раздачи
Автор: Снежана | Размер: 8.58 ГБ | Добавлен: 27 июл 2013
Раздают: 171    Качают: 17
Скачать торрент
Скачать торрент
Описание торрента

СообщениеДобавлено: 27 июл 2013 

Монстры на каникулах / Hotel Transylvania
«Будет страшно смешно»


#77

Страна: США
Студия: Columbia Pictures, Sony Pictures Animation
Жанр: мультфильм, комедия, семейный
Год выпуска: 2012
Продолжительность: 01:31:31

Перевод: русский и украинский дубляжи [Лицензия, BD CEE]
Оригинальная аудиодорожка: английская
Русские субтитры: есть
Режиссер: Генндий Тартаковский / Genndy Tartakovsky
Роли озвучивали: Адам Сэндлер, Энди Сэмберг, Селена Гомес, Кевин Джеймс, Фрэн Дрешер, Стив Бушеми, Молли Шеннон, Дэвид Спейд, Си-Ло, Джон Ловиц
Роли дублировали: Сергей Бурунов, Александр Пушной, Полина Гагарина, Михаил Шац, Дмитрий Полонский


Граф Дракула для себя и своей любимой дочки построил хорошо укрытый от посторонних глаз отель, куда монстры со всего света приезжают отдохнуть от семейных забот, повседневной суеты и, конечно… людей. Но вездесущие американские туристы проникают и сюда.

Тип релиза: BDRip 1080p
Контейнер: MKV
Видео кодек: x264
Аудио кодек: AC3
Видео: AVC / High@L4.1 / 2 pass / 23,976 fps / 1920x1036p / 11,5 Mbps / 0.241
Аудио 1: AC3 / 5.1 ch / 640 kbps / Русский дубляж BD CEE
Аудио 2: AC3 / 5.1 ch / 640 kbps / Украинский дубляж BD CEE
Аудио 3: AC3 / 5.1 ch / 640 kbps / Английский original BD CEE
Субтитры: [softsub SRT]
Русские Full BD CEE
Английские Full BD CEE
Дополнительно: Сохранены оригинальные чаптеры как на Blu-ray
Рип от: HDMaNiAcS


Раздача от:













x264 [info]: frame I:1076 Avg QP:12.80 size:336375
x264 [info]: frame P:37380 Avg QP:15.60 size:118695
x264 [info]: frame B:93063 Avg QP:17.51 size: 39056

Общее
Уникальный идентификатор : 238830954976303577441490386506164287247 (0xB3AD2B3566035DCCA218B6188F75370F)
Полное имя : F:Скачка торрентHotel.Transylvania.2012.BDRip1080p(HDMaNiAcS).mkv
Формат : Matroska
Версия формата : Version 4 / Version 2
Размер файла : 8,58 Гбайт
Продолжительность : 1 ч. 31 м.
Общий поток : 13,4 Мбит/сек
Название фильма : Hotel Transylvania (2012) by HDMaNiAcS
Дата кодирования : UTC 2010-02-22 21:41:31
Программа кодирования : mkvmerge v5.9.0 ('On The Loose') built on Dec 9 2012 15:37:01
Библиотека кодирования : libebml v1.3.0 + libmatroska v1.4.0

Видео
Идентификатор : 1
Формат : AVC
Формат/Информация : Advanced Video Codec
Профиль формата : High@L4.1
Параметр CABAC формата : Да
Параметр ReFrames формата : 4 кадра
Идентификатор кодека : V_MPEG4/ISO/AVC
Битрейт : 11,5 Мбит/сек
Ширина : 1920 пикселей
Высота : 1036 пикселей
Соотношение сторон : 1,85:1
Режим частоты кадров : Переменный
Частота кадров в оригинале : 23,976 кадра/сек
Цветовое пространство : YUV
Субдискретизация насыщенности : 4:2:0
Битовая глубина : 8 бит
Тип развёртки : Прогрессивная
Бит/(Пиксели*Кадры) : 0.241
Заголовок : Hotel Transylvania (2012)
Библиотека кодирования : x264 core 129 r2230 1cffe9f
Настройки программы : cabac=1 / ref=4 / deblock=1:-1:-1 / analyse=0x3:0x113 / me=tesa / subme=11 / psy=1 / psy_rd=1.00:0.00 / mixed_ref=1 / me_range=24 / chroma_me=1 / trellis=2 / 8x8dct=1 / cqm=0 / deadzone=21,11 / fast_pskip=1 / chroma_qp_offset=-2 / threads=12 / lookahead_threads=2 / sliced_threads=0 / nr=0 / decimate=1 / interlaced=0 / bluray_compat=0 / constrained_intra=0 / bframes=8 / b_pyramid=2 / b_adapt=2 / b_bias=0 / direct=3 / weightb=1 / open_gop=0 / weightp=2 / keyint=240 / keyint_min=23 / scenecut=40 / intra_refresh=0 / rc=2pass / mbtree=0 / bitrate=11500 / ratetol=1.0 / qcomp=0.60 / qpmin=10 / qpmax=69 / qpstep=4 / cplxblur=20.0 / qblur=0.5 / ip_ratio=1.40 / pb_ratio=1.30 / aq=2:0.90
Язык : English
Default : Да
Forced : Нет

Аудио #1
Идентификатор : 2
Формат : AC-3
Формат/Информация : Audio Coding 3
Расширение режима : CM (complete main)
Параметр Endianness формата : Big
Идентификатор кодека : A_AC3
Продолжительность : 1 ч. 31 м.
Вид битрейта : Постоянный
Битрейт : 640 Кбит/сек
Каналы : 6 каналов
Расположение каналов : Front: L C R, Side: L R, LFE
Частота : 48,0 КГц
Битовая глубина : 16 бит
Метод сжатия : С потерями
Размер потока : 419 Мбайт (5%)
Заголовок : AC3 / 5.1 ch / 640 kbps / Русский дубляж BD CEE
Язык : Russian
Default : Да
Forced : Нет

Аудио #2
Идентификатор : 3
Формат : AC-3
Формат/Информация : Audio Coding 3
Расширение режима : CM (complete main)
Параметр Endianness формата : Big
Идентификатор кодека : A_AC3
Продолжительность : 1 ч. 31 м.
Вид битрейта : Постоянный
Битрейт : 640 Кбит/сек
Каналы : 6 каналов
Расположение каналов : Front: L C R, Side: L R, LFE
Частота : 48,0 КГц
Битовая глубина : 16 бит
Метод сжатия : С потерями
Размер потока : 419 Мбайт (5%)
Заголовок : AC3 / 5.1 ch / 640 kbps / Украинский дубляж BD CEE
Язык : Ukrainian
Default : Нет
Forced : Нет

Аудио #3
Идентификатор : 4
Формат : AC-3
Формат/Информация : Audio Coding 3
Расширение режима : CM (complete main)
Параметр Endianness формата : Big
Идентификатор кодека : A_AC3
Продолжительность : 1 ч. 31 м.
Вид битрейта : Постоянный
Битрейт : 640 Кбит/сек
Каналы : 6 каналов
Расположение каналов : Front: L C R, Side: L R, LFE
Частота : 48,0 КГц
Битовая глубина : 16 бит
Метод сжатия : С потерями
Размер потока : 419 Мбайт (5%)
Заголовок : AC3 / 5.1 ch / 640 kbps / Английский original BD CEE
Язык : English
Default : Нет
Forced : Нет

Текст #1
Идентификатор : 5
Формат : UTF-8
Идентификатор кодека : S_TEXT/UTF8
Идентификатор кодека/Информация : UTF-8 Plain Text
Заголовок : Full BD
Язык : Russian
Default : Нет
Forced : Нет

Текст #2
Идентификатор : 6
Формат : UTF-8
Идентификатор кодека : S_TEXT/UTF8
Идентификатор кодека/Информация : UTF-8 Plain Text
Заголовок : Full BD
Язык : English
Default : Нет
Forced : Нет

Меню
00:00:00.000 : en:00:00:00.000
00:04:49.372 : en:00:04:49.372
00:10:23.790 : en:00:10:23.790
00:14:19.275 : en:00:14:19.275
00:19:25.498 : en:00:19:25.498
00:25:11.218 : en:00:25:11.218
00:29:49.413 : en:00:29:49.413
00:35:50.815 : en:00:35:50.815
00:41:11.636 : en:00:41:11.636
00:46:29.537 : en:00:46:29.537
00:53:50.227 : en:00:53:50.227
00:57:44.795 : en:00:57:44.795
01:04:15.268 : en:01:04:15.268
01:08:48.499 : en:01:08:48.499
01:15:20.599 : en:01:15:20.599
01:18:50.643 : en:01:18:50.643







   Похожие торренты   Торрент   Размер 
В этой теме нет новых непрочитанных сообщений. Монстры на каникулах / Hotel Transylvania (2012) BDRip 1080p от Youtracker | 3D-Video | Лицензия

435 | 51

9.08 ГБ

В этой теме нет новых непрочитанных сообщений. Монстры на каникулах / Hotel Transylvania (2012) BDRip от Youtracker | D | лицензия

10796 | 269

1.46 ГБ

В этой теме нет новых непрочитанных сообщений. Монстры на каникулах / Hotel Transylvania (2012) BDRip от Youtracker | D | Лицензия

502 | 21

745.15 МБ

В этой теме нет новых непрочитанных сообщений. Монстры на каникулах / Hotel Transylvania (2012) BDRip 720p от Youtracker | D | лицензия

265 | 8

5.13 ГБ

В этой теме нет новых непрочитанных сообщений. Монстры на каникулах / Hotel Transylvania (2012) BDRemux 1080p от Youtracker | D

76 | 9

17.72 ГБ

В этой теме нет новых непрочитанных сообщений. Монстры на каникулах / Hotel Transylvania (2012) Blu-ray 1080p HDCLUB и Youtracker | D

14 | 13

29.84 ГБ

В этой теме нет новых непрочитанных сообщений. Монстры на каникулах / Hotel Transylvania (2012) DVD9 R5 от Youtracker | D

42 | 5

5.75 ГБ




Вы не можете начинать темы
Вы не можете отвечать на сообщения
Вы не можете редактировать свои сообщения
Вы не можете удалять свои сообщения
Вы не можете добавлять вложения

Перейти:  
Для Мосгорсуда, Роскомнадзора и рекламодателей: mosgorsud-torrent[собачка]yandex.ru
 Вход
ppkBB3cker v.2 © 2008-2014 @ PPK
[ Time : 0.031s | 14 Queries | GZIP : Off ]

Торрент трекер RUTOR.IN, Не можете зайти на rutor.org? Какой новый адрес рутор? Какое зеркало рутор? Не работает rutor.org и зеркала? Тогда наш торрент специально для вас. Rutor.in неофициальное зеркало rutor. В случае если у Вас заблокирован rutor или вдруг Вы не можете на него зайти, то Вы без труда сможете скачать бесплатно и без рекламы последние новинки кино, игр, сериалов и прочего у нас, на Rutor.in. Не нужно использовать прокси, чтобы зайти на рутор, достаточно воспользоваться нашим ресурсом. Все новые фильмы, игры, сериалы, книги и музыка за 2013 и 2014 годы через торрент бесплатно. Скачивайте фильмы в хорошем качестве, игры для пк, xbox, playstation без регистрации. У нас вы найдете новые Зарубежные сериалы и Русские сериалы 2013, 2014, 2015 годов. Оставайтесь с нами, качайте любимые фильмы, игры, сериалы, книги и музыку.