img image001 image001 image001 image001 image001 image001 image001 image001 image001 image001 image001 image001 image001 image001 image001

Planets Sun Sun Sun
Статистика раздачи
Автор: Снежана | Размер: 23.09 ГБ | Добавлен: 27 июл 2013
Раздают: 0    Качают: 2
Скачать торрент
Скачать торрент
Описание торрента

СообщениеДобавлено: 27 июл 2013 

«The electrifying dog is back from beyond the grave»

#77
Страна: США
Жанр: мультфильм, ужасы, фантастика, комедия
Год выпуска: 2012
Продолжительность: 01:26:56
Перевод: Профессиональный (дублированный)
Оригинальная аудиодорожка: английский
Cубтитры: смотри ниже


Режиссер: Тим Бёртон / Tim Burton


В ролях: Чарли Тахэн, Кэтрин О’Хара, Мартин Шорт, Мартин Ландау, Аттикус Шаффер, Вайнона Райдер, Роберт Капрон, Джеймс Хироюки Лиао, Кончата Феррелл, Том Кенни...


Описание: Обожаемый мальчиком Виктором пес Спарки погибает в результате несчастного случая. Мальчик, не желая мириться с потерей друга, призывает науку на помощь и…возвращает питомца к жизни! Казалось бы, все не так уж плохо, но когда Спарки сбегает от Виктора, его друзья, родители, учителя и жители городка узнают, что возвращение к жизни домашнего питомца может повлечь за собой неожиданные и даже ужасные последствия!





Качество видео: BDRemux 1080p
Формат видео: MKV

Видео: 1920x1080 (16:9), MPEG-4 AVC Video 32,3 Мбит/сек 1080p / 23,976 fps / 16:9 / High Profile 4.1
Аудио:
Dolby Digital Audio Russian 640 kbps 5.1 / 48 kHz / 640 kbps
DTS-HD Master Audio English 4976 kbps 7.1 / 48 kHz / 4976 kbps / 24-bit (DTS Core: 5.1 / 48 kHz / 1509 kbps / 24-bit)
Dolby Digital Audio Ukrainian 640 kbps 5.1 / 48 kHz / 640 kbps
Субтитры: русский (srt), английский (srt), английский (SDH, srt), украинский (PGS)

Раздача от:
Общее
Полное имя : Frankenvini.2012.BDRemux.1080p_[Youtracker].mkv
Формат : Matroska
Версия формата : Version 4 / Version 2
Размер файла : 23,1 Гбайт
Продолжительность : 1 ч. 26 м.
Режим общего битрейта : Переменный
Общий поток : 38,0 Мбит/сек
Дата кодирования : UTC 2010-02-22 21:41:31
Программа кодирования : mkvmerge v5.9.0 ('On The Loose') built on Dec 9 2012 15:37:01
Библиотека кодирования : libebml v1.3.0 + libmatroska v1.4.0

Видео
Идентификатор : 1
Формат : AVC
Формат/Информация : Advanced Video Codec
Профиль формата : High@L4.1
Параметр CABAC формата : Да
Параметр ReFrames формата : 4 кадра
Идентификатор кодека : V_MPEG4/ISO/AVC
Продолжительность : 1 ч. 26 м.
Вид битрейта : Переменный
Битрейт : 32,3 Мбит/сек
Максимальный битрейт : 33,5 Мбит/сек
Ширина : 1920 пикселей
Высота : 1080 пикселей
Соотношение сторон : 16:9
Частота кадров : 23,976 кадра/сек
Цветовое пространство : YUV
Субдискретизация насыщенности : 4:2:0
Битовая глубина : 8 бит
Тип развёртки : Прогрессивная
Бит/(Пиксели*Кадры) : 0.649
Размер потока : 19,6 Гбайт (85%)
Язык : English
Default : Да
Forced : Нет

Аудио #1
Идентификатор : 2
Формат : AC-3
Формат/Информация : Audio Coding 3
Расширение режима : CM (complete main)
Параметр Endianness формата : Big
Идентификатор кодека : A_AC3
Продолжительность : 1 ч. 26 м.
Вид битрейта : Постоянный
Битрейт : 640 Кбит/сек
Каналы : 6 каналов
Расположение каналов : Front: L C R, Side: L R, LFE
Частота : 48,0 КГц
Битовая глубина : 16 бит
Метод сжатия : С потерями
Размер потока : 398 Мбайт (2%)
Язык : Russian
Default : Да
Forced : Нет

Аудио #2
Идентификатор : 3
Формат : DTS
Формат/Информация : Digital Theater Systems
Профиль формата : MA / Core
Идентификатор кодека : A_DTS
Продолжительность : 1 ч. 26 м.
Вид битрейта : Переменный
Битрейт : 3715 Кбит/сек / 1510 Кбит/сек
Каналы : 8 каналов / 6 каналов
Расположение каналов : Front: L C R, Side: L R, Back: L R, LFE / Front: L C R, Side: L R, LFE
Частота : 48,0 КГц
Битовая глубина : 24 бит
Метод сжатия : Без потерь / Lossy
Язык : English
Default : Нет
Forced : Нет

Аудио #3
Идентификатор : 4
Формат : AC-3
Формат/Информация : Audio Coding 3
Расширение режима : CM (complete main)
Параметр Endianness формата : Big
Идентификатор кодека : A_AC3
Продолжительность : 1 ч. 26 м.
Вид битрейта : Постоянный
Битрейт : 640 Кбит/сек
Каналы : 6 каналов
Расположение каналов : Front: L C R, Side: L R, LFE
Частота : 48,0 КГц
Битовая глубина : 16 бит
Метод сжатия : С потерями
Размер потока : 398 Мбайт (2%)
Язык : Ukrainian
Default : Нет
Forced : Нет

Текст #1
Идентификатор : 5
Формат : UTF-8
Идентификатор кодека : S_TEXT/UTF8
Идентификатор кодека/Информация : UTF-8 Plain Text
Язык : Russian
Default : Нет
Forced : Нет

Текст #2
Идентификатор : 6
Формат : UTF-8
Идентификатор кодека : S_TEXT/UTF8
Идентификатор кодека/Информация : UTF-8 Plain Text
Язык : English
Default : Нет
Forced : Нет

Текст #3
Идентификатор : 7
Формат : UTF-8
Идентификатор кодека : S_TEXT/UTF8
Идентификатор кодека/Информация : UTF-8 Plain Text
Заголовок : SDH
Язык : English
Default : Нет
Forced : Нет

Текст #4
Идентификатор : 8
Формат : PGS
Идентификатор кодека : S_HDMV/PGS
Идентификатор кодека/Информация : The same subtitle format used on BDs/HD-DVDs
Язык : Ukrainian
Default : Нет
Forced : Нет

Меню
00:00:00.000 : en:Victor & Sparky
00:05:25.325 : en:Mr. Whiskers Had a Dream
00:11:17.218 : en:Science Fair, Baseball
00:15:32.014 : en:Elictricity
00:19:28.292 : en:The Experiment
00:26:09.318 : en:Alive
00:31:59.793 : en:Edgar Knows
00:35:52.525 : en:The Second Experiment
00:41:12.178 : en:Mr. Menace
00:46:44.385 : en:Wrong Motives
00:50:13.344 : en:Secret Revealed
00:55:24.863 : en:Experiments Gone Wrong
01:03:47.198 : en:Datch Day Mayhem
01:09:25.995 : en:Taking Out the Monsters
01:16:44.934 : en:Always in My Heart
01:20:08.804 : en:End Credits





   Похожие торренты   Торрент   Размер 
В этой теме нет новых непрочитанных сообщений. Франкенвини / Frankenweenie (2012) BDRemux 1080p

12 | 6

22.54 ГБ

В этой теме нет новых непрочитанных сообщений. Франкенвини / Frankenweenie (2012) Blu-ray 1080p от HDCLUB и Youtracker | D

0 | 2

38.76 ГБ

В этой теме нет новых непрочитанных сообщений. Франкенвини / Frankenweenie (2012) BDRip 1080p от Youtracker | D

35 | 8

8.14 ГБ

В этой теме нет новых непрочитанных сообщений. Франкенвини / Frankenweenie (2012) BDRip 1080p от Youtracker | 3D-Video | Лицензия

389 | 9

9.36 ГБ

В этой теме нет новых непрочитанных сообщений. Франкенвини / Frankenweenie (2012) BDRip от Youtracker | D

5 | 2

2.2 ГБ

В этой теме нет новых непрочитанных сообщений. Франкенвини / Frankenweenie (2012) BDRip от Youtracker | D

0 | 3

1.73 ГБ

В этой теме нет новых непрочитанных сообщений. Франкенвини / Frankenweenie (2012) BDRip от Youtracker | D

2 | 2

745.61 МБ




Вы не можете начинать темы
Вы не можете отвечать на сообщения
Вы не можете редактировать свои сообщения
Вы не можете удалять свои сообщения
Вы не можете добавлять вложения

Перейти:  
Для Мосгорсуда, Роскомнадзора и рекламодателей: mosgorsud-torrent[собачка]yandex.ru
 Вход
ppkBB3cker v.2 © 2008-2014 @ PPK
[ Time : 0.027s | 15 Queries | GZIP : Off ]

Торрент трекер RUTOR.IN, Не можете зайти на rutor.org? Какой новый адрес рутор? Какое зеркало рутор? Не работает rutor.org и зеркала? Тогда наш торрент специально для вас. Rutor.in неофициальное зеркало rutor. В случае если у Вас заблокирован rutor или вдруг Вы не можете на него зайти, то Вы без труда сможете скачать бесплатно и без рекламы последние новинки кино, игр, сериалов и прочего у нас, на Rutor.in. Не нужно использовать прокси, чтобы зайти на рутор, достаточно воспользоваться нашим ресурсом. Все новые фильмы, игры, сериалы, книги и музыка за 2013 и 2014 годы через торрент бесплатно. Скачивайте фильмы в хорошем качестве, игры для пк, xbox, playstation без регистрации. У нас вы найдете новые Зарубежные сериалы и Русские сериалы 2013, 2014, 2015 годов. Оставайтесь с нами, качайте любимые фильмы, игры, сериалы, книги и музыку.
cron