img image001 image001 image001 image001 image001 image001 image001 image001 image001 image001 image001 image001 image001 image001 image001

Planets Sun Sun Sun
Статистика раздачи
Автор: Снежана | Размер: 1.73 ГБ | Добавлен: 27 июл 2013
Раздают: 0    Качают: 3
Скачать торрент
Скачать торрент
Описание торрента

СообщениеДобавлено: 27 июл 2013 

«The electrifying dog is back from beyond the grave»

#77
Страна: США
Жанр: мультфильм, ужасы, фантастика, комедия
Год выпуска: 2012
Продолжительность: 01:26:56
Перевод: Профессиональный (дублированный)
Оригинальная аудиодорожка: английский (отдельным файлом)
Субтитры: русский (srt), английский (srt), английский (SDH, srt)

Режиссер: Тим Бёртон / Tim Burton

В ролях: Чарли Тахэн, Кэтрин О’Хара, Мартин Шорт, Мартин Ландау, Аттикус Шаффер, Вайнона Райдер, Роберт Капрон, Джеймс Хироюки Лиао, Кончата Феррелл, Том Кенни...

Описание: Обожаемый мальчиком Виктором пес Спарки погибает в результате несчастного случая. Мальчик, не желая мириться с потерей друга, призывает науку на помощь и…возвращает питомца к жизни! Казалось бы, все не так уж плохо, но когда Спарки сбегает от Виктора, его друзья, родители, учителя и жители городка узнают, что возвращение к жизни домашнего питомца может повлечь за собой неожиданные и даже ужасные последствия!





Качество видео: BDRip [Frankenvini.2012.BDRemux.1080p_[Youtracker].mkv]
Формат видео: AVI

Видео: 720x384 (1.85:1), XViD 1942 Кбит/сек 23,976 fps / Бит/(Пиксели*Кадры): 0.293
Аудио:
Dolby Digital Audio Russian 448 kbps 5.1 / 48 kHz
Dolby Digital Audio English 448 kbps 5.1 / 48 kHz (отдельным файлом)

Раздача от:
Общее
Полное имя : Frankenvini.2012.BDRip_[Youtracker]_by_avproh.avi
Формат : AVI
Формат/Информация : Audio Video Interleave
Размер файла : 1,46 Гбайт
Продолжительность : 1 ч. 26 м.
Общий поток : 2399 Кбит/сек
Программа кодирования : VirtualDubMod 1.5.10.3 (build 2550/release)
Библиотека кодирования : VirtualDubMod build 2550/release

Видео
Идентификатор : 0
Формат : MPEG-4 Visual
Профиль формата : Advanced Simple@L5
Параметр BVOP формата : 1
Параметр QPel формата : Нет
Параметр GMC формата : Без точки перехода
Параметр матрицы формата : Выборочная
Идентификатор кодека : XVID
Идентификатор кодека/Подсказка : XviD
Продолжительность : 1 ч. 26 м.
Битрейт : 1942 Кбит/сек
Ширина : 720 пикселей
Высота : 384 пикселя
Соотношение сторон : 1,85:1
Частота кадров : 23,976 кадра/сек
Цветовое пространство : YUV
Субдискретизация насыщенности : 4:2:0
Битовая глубина : 8 бит
Тип развёртки : Прогрессивная
Метод сжатия : С потерями
Бит/(Пиксели*Кадры) : 0.293
Размер потока : 1,18 Гбайт (81%)
Библиотека кодирования : XviD 65

Аудио
Идентификатор : 1
Формат : AC-3
Формат/Информация : Audio Coding 3
Расширение режима : CM (complete main)
Параметр Endianness формата : Big
Идентификатор кодека : 2000
Продолжительность : 1 ч. 26 м.
Вид битрейта : Постоянный
Битрейт : 448 Кбит/сек
Каналы : 6 каналов
Расположение каналов : Front: L C R, Side: L R, LFE
Частота : 48,0 КГц
Битовая глубина : 16 бит
Метод сжатия : С потерями
Размер потока : 279 Мбайт (19%)
Выравнивание : Разделение по промежуткам
Продолжительность промежутка : 42 мс. (1,00 видеокадр)
Время предзагрузки промежутка : 500 мс.



http://rutor.org/torrent/251042/frankenvini_frankenweenie-2012-hdrip-licenzija

http://www.check2pic.ru/compare/25152/ - в двойном разрешении
http://www.check2pic.ru/compare/25153/ - в оригинальном разрешении
1. Картинка у конкурента перекропана со всех 4-х сторон.
2. Картинка у конкурента мутнее и квадратит иногда.
3. В релизе конкурента отсутствуют субтитры и оригинальная аудиодорожка.



   Похожие торренты   Торрент   Размер 
В этой теме нет новых непрочитанных сообщений. Франкенвини / Frankenweenie (2012) BDRip от Youtracker | D

2 | 2

745.61 МБ

В этой теме нет новых непрочитанных сообщений. Франкенвини / Frankenweenie (2012) BDRip от Youtracker | D

5 | 2

2.2 ГБ

В этой теме нет новых непрочитанных сообщений. Франкенвини / Frankenweenie (2012) BDRip 1080p от Youtracker | D

35 | 8

8.14 ГБ

В этой теме нет новых непрочитанных сообщений. Франкенвини / Frankenweenie (2012) BDRip 720p от Youtracker | D

0 | 2

5.14 ГБ

В этой теме нет новых непрочитанных сообщений. Франкенвини / Frankenweenie (2012) BDRip 1080p от Youtracker | 3D-Video | Лицензия

389 | 9

9.36 ГБ

В этой теме нет новых непрочитанных сообщений. Франкенвини / Frankenweenie (2012) BDRemux 1080p от Youtracker | D

0 | 2

23.09 ГБ

В этой теме нет новых непрочитанных сообщений. Франкенвини / Frankenweenie (2012) Blu-ray 1080p от HDCLUB и Youtracker | D

0 | 2

38.76 ГБ




Вы не можете начинать темы
Вы не можете отвечать на сообщения
Вы не можете редактировать свои сообщения
Вы не можете удалять свои сообщения
Вы не можете добавлять вложения

Перейти:  
Для Мосгорсуда, Роскомнадзора и рекламодателей: mosgorsud-torrent[собачка]yandex.ru
 Вход
ppkBB3cker v.2 © 2008-2014 @ PPK
[ Time : 0.047s | 14 Queries | GZIP : Off ]

Торрент трекер RUTOR.IN, Не можете зайти на rutor.org? Какой новый адрес рутор? Какое зеркало рутор? Не работает rutor.org и зеркала? Тогда наш торрент специально для вас. Rutor.in неофициальное зеркало rutor. В случае если у Вас заблокирован rutor или вдруг Вы не можете на него зайти, то Вы без труда сможете скачать бесплатно и без рекламы последние новинки кино, игр, сериалов и прочего у нас, на Rutor.in. Не нужно использовать прокси, чтобы зайти на рутор, достаточно воспользоваться нашим ресурсом. Все новые фильмы, игры, сериалы, книги и музыка за 2013 и 2014 годы через торрент бесплатно. Скачивайте фильмы в хорошем качестве, игры для пк, xbox, playstation без регистрации. У нас вы найдете новые Зарубежные сериалы и Русские сериалы 2013, 2014, 2015 годов. Оставайтесь с нами, качайте любимые фильмы, игры, сериалы, книги и музыку.