img image001 image001 image001 image001 image001 image001 image001 image001 image001 image001 image001 image001 image001 image001 image001

Planets Sun Sun Sun
Статистика раздачи
Автор: Снежана | Размер: 1.45 ГБ | Добавлен: 27 июл 2013
Раздают: 3    Качают: 1
Скачать торрент
Скачать торрент
Описание торрента

СообщениеДобавлено: 27 июл 2013 

Топ Кэт / Don gato y su pandilla
«Держи хвост пистолетом!»


#77

Студия: Anima Estudios, Illusion Studios
Жанр: мультфильм, боевик, комедия, семейный
Год выпуска: 2011
Продолжительность: 01:30:19

Перевод: Профессиональный (дублированный) [Лицензия]
Русские субтитры: нет
Режиссёр: Альберто Мар / Alberto Mar


Супер Кот и его озорная шайка бродячих котов сталкиваются с новым шефом полиции и своим старым заклятым врагом — офицером Дибблом. Полиция полна решимости помешать проделкам Кота и надеется выдворить его из любимого переулка. Но как бы они не старались, команде Супер Кота всегда удается обвести блюстителей закона вокруг пальца.

Тип релиза: HDRip (исходник: Топ Кэт / Don gato y su pandilla (2011) Blu-ray 3D 1080p AVC DTS-HD 5.1)
Контейнер: AVI
Видео кодек: XViD
Аудио кодек: AC3
Видео: 720x400 (1.80:1), 23.976 fps, XviD MPEG-4 ~1836 kbps avg, 0.27 bit/pixel
Аудио: 48 kHz, AC3 Dolby Digital, 3/2 (L,C,R,l,r) + LFE ch, ~448 kbps Русский дубляж BD RUS
Рип от: Killbrain


Раздача от:











Общее
Полное имя : F:Скачка торрентDon.gato.y.su.pandilla,2011.HDRip[Killbrain].avi
Формат : AVI
Формат/Информация : Audio Video Interleave
Размер файла : 1,45 Гбайт
Продолжительность : 1 ч. 30 м.
Общий поток : 2294 Кбит/сек
Название фильма : Don.gato.y.su.pandilla,2011.HDRip[Killbrain]
Режиссёр : Killbrain
Жанр : Action/Adventure
Программа кодирования : VirtualDubModRus 1.5.10.2 (build 2540/release)
Формат оригинала/Имя : Cartoon
Правообладатель : RG YouTracker.net
Примечание : http://youtracker.net/

Видео
Идентификатор : 0
Формат : MPEG-4 Visual
Профиль формата : Advanced Simple@L5
Параметр BVOP формата : 2
Параметр QPel формата : Нет
Параметр GMC формата : Без точки перехода
Параметр матрицы формата : Default (H.263)
Режим смешивания : Сжатый битовый поток
Идентификатор кодека : XVID
Идентификатор кодека/Подсказка : XviD
Продолжительность : 1 ч. 30 м.
Битрейт : 1836 Кбит/сек
Ширина : 720 пикселей
Высота : 400 пикселей
Соотношение сторон : 16:9
Частота кадров : 23,976 кадра/сек
Цветовое пространство : YUV
Субдискретизация насыщенности : 4:2:0
Битовая глубина : 8 бит
Тип развёртки : Прогрессивная
Метод сжатия : С потерями
Бит/(Пиксели*Кадры) : 0.266
Размер потока : 1,16 Гбайт (80%)
Библиотека кодирования : XviD 1.2.1 (UTC 2008-12-04)

Аудио
Идентификатор : 1
Формат : AC-3
Формат/Информация : Audio Coding 3
Расширение режима : CM (complete main)
Параметр Endianness формата : Big
Идентификатор кодека : 2000
Продолжительность : 1 ч. 30 м.
Вид битрейта : Постоянный
Битрейт : 448 Кбит/сек
Каналы : 6 каналов
Расположение каналов : Front: L C R, Side: L R, LFE
Частота : 48,0 КГц
Битовая глубина : 16 бит
Метод сжатия : С потерями
Размер потока : 289 Мбайт (20%)
Выравнивание : Разделение по промежуткам
Продолжительность промежутка : 42 мс. (1,00 видеокадр)
Время предзагрузки промежутка : 500 мс.




   Похожие торренты   Торрент   Размер 
В этой теме нет новых непрочитанных сообщений. Топ Кэт / Don gato y su pandilla (2011) HDRip | Лицензия

27 | 1

700.97 МБ

В этой теме нет новых непрочитанных сообщений. Топ Кэт / Don Gato y su pandilla (2011) HDRip | Лицензия

9 | 2

1.37 ГБ

В этой теме нет новых непрочитанных сообщений. Топ Кэт / Don gato y su pandilla (2011) BDRip 1080p от Youtracker | 3D-Video

0 | 3

5.33 ГБ

В этой теме нет новых непрочитанных сообщений. Топ Кэт / Don Gato y su pandilla (2011) HDRip

0 | 5

1.41 ГБ

В этой теме нет новых непрочитанных сообщений. Топ Кэт / Don gato y su pandilla (2011) BDRip 720p | Лицензия

1 | 1

4.03 ГБ

В этой теме нет новых непрочитанных сообщений. Топ Кэт / Don Gato y su pandilla (2011) DVDRip

0 | 2

1.47 ГБ

В этой теме нет новых непрочитанных сообщений. Топ Кэт / Don Gato y su pandilla (2011) DVDRip

0 | 4

699 МБ




Вы не можете начинать темы
Вы не можете отвечать на сообщения
Вы не можете редактировать свои сообщения
Вы не можете удалять свои сообщения
Вы не можете добавлять вложения

Перейти:  
Для Мосгорсуда, Роскомнадзора и рекламодателей: mosgorsud-torrent[собачка]yandex.ru
 Вход
ppkBB3cker v.2 © 2008-2014 @ PPK
[ Time : 0.028s | 14 Queries | GZIP : Off ]

Торрент трекер RUTOR.IN, Не можете зайти на rutor.org? Какой новый адрес рутор? Какое зеркало рутор? Не работает rutor.org и зеркала? Тогда наш торрент специально для вас. Rutor.in неофициальное зеркало rutor. В случае если у Вас заблокирован rutor или вдруг Вы не можете на него зайти, то Вы без труда сможете скачать бесплатно и без рекламы последние новинки кино, игр, сериалов и прочего у нас, на Rutor.in. Не нужно использовать прокси, чтобы зайти на рутор, достаточно воспользоваться нашим ресурсом. Все новые фильмы, игры, сериалы, книги и музыка за 2013 и 2014 годы через торрент бесплатно. Скачивайте фильмы в хорошем качестве, игры для пк, xbox, playstation без регистрации. У нас вы найдете новые Зарубежные сериалы и Русские сериалы 2013, 2014, 2015 годов. Оставайтесь с нами, качайте любимые фильмы, игры, сериалы, книги и музыку.