img image001 image001 image001 image001 image001 image001 image001 image001 image001 image001 image001 image001 image001 image001 image001

Planets Sun Sun Sun
Статистика раздачи
Автор: Снежана | Размер: 9.36 ГБ | Добавлен: 27 июл 2013
Раздают: 389    Качают: 9
Скачать торрент
Скачать торрент
Описание торрента

СообщениеДобавлено: 27 июл 2013 

#77


Франкенвини в 3Д / Frankenweenie 3D
«The electrifying dog is back from beyond the grave»


#77

Страна: США
Студия: Tim Burton Animation Co., Tim Burton Productions, Walt Disney Pictures
Жанр: мультфильм, ужасы, фантастика, комедия
Год выпуска: 2012
Продолжительность: 01:26:56

Перевод: русский и украинский дубляжи [Лицензия, BD EUR]
Оригинальная аудиодорожка: английская
Русские субтитры: есть
Режиссер: Тим Бёртон / Tim Burton
Роли озвучивали: Чарли Тахэн, Кэтрин О’Хара, Мартин Шорт, Мартин Ландау, Вайнона Райдер, Роберт Капрон, Кончата Феррелл, Аттикус Шаффер, Том Кенни, Джеймс Хироюки Лиао
Роли дублировали: Юрий Лазарев и др.


Обожаемый мальчиком Виктором пес Спарки погибает в результате несчастного случая. Мальчик, не желая мириться с потерей друга, призывает науку на помощь и…возвращает питомца к жизни! Казалось бы, все не так уж плохо, но когда Спарки сбегает от Виктора, его друзья, родители, учителя и жители городка узнают, что возвращение к жизни домашнего питомца может повлечь за собой неожиданные и даже ужасные последствия!

Качество: BDRip 1080p
Контейнер: MKV
Формат 3D: Half OverUnder / Вертикальная анаморфная стереопара
Порядок ракурсов: левый ракурс первый
Поддержка автоматического запуска 3D на вашем TV (frame paking): нет
Видео кодек: x264
Аудио кодек: AC3
Видео: AVC / High@L4.1 / 2 pass / 23,976 fps / 1920x1080p / 13,5 Mbps / 0.272
Аудио 1: AC3 / 5.1 ch / 640 kbps / Русский дубляж BD EUR
Аудио 2: AC3 / 5.1 ch / 640 kbps / Украинский дубляж BD EUR
Аудио 3: AC3 / 5.1 ch / 640 kbps / Английский original BD EUR
Субтитры: [softsub SRT]
Русские Forced BD EUR (включены по умолчанию)
Русские Full BD EUR
Украинские Forced BD EUR
Украинские Full BD EUR
Английские SDH BD EUR
Английские Full BD EUR
Дополнительно: Сохранены оригинальные чаптеры как на Blu-ray
Рип от: HDMaNiAcS


Раздача от:








Проверено на оборудовании:
3D медиаплеер: iconBIT XDS73D
3D телевизор: 3D LED-Телевизор 40" Samsung UE40 ES6850M








Общее
Уникальный идентификатор : 179610383459428485991790645016801783186 (0x871FB39AED263EB5B7120ABECF232D92)
Полное имя : F:Скачка торрентFrankenweenie.3D.2012.BDRip1080p.halfOU(HDMaNiAcS).mkv
Формат : Matroska
Версия формата : Version 4 / Version 2
Размер файла : 9,36 Гбайт
Продолжительность : 1 ч. 26 м.
Общий поток : 15,4 Мбит/сек
Название фильма : Frankenweenie 3D (2012) by HDMaNiAcS
Дата кодирования : UTC 2010-02-22 21:41:31
Программа кодирования : mkvmerge v5.9.0 ('On The Loose') built on Dec 9 2012 15:37:01
Библиотека кодирования : libebml v1.3.0 + libmatroska v1.4.0

Видео
Идентификатор : 1
Формат : AVC
Формат/Информация : Advanced Video Codec
Профиль формата : High@L4.1
Параметр CABAC формата : Да
Параметр ReFrames формата : 4 кадра
Идентификатор кодека : V_MPEG4/ISO/AVC
Продолжительность : 1 ч. 26 м.
Битрейт : 13,5 Мбит/сек
Ширина : 1920 пикселей
Высота : 1080 пикселей
Соотношение сторон : 16:9
Режим частоты кадров : Постоянный
Частота кадров : 23,976 кадра/сек
Цветовое пространство : YUV
Субдискретизация насыщенности : 4:2:0
Битовая глубина : 8 бит
Тип развёртки : Прогрессивная
Бит/(Пиксели*Кадры) : 0.272
Размер потока : 8,01 Гбайт (86%)
Заголовок : Frankenweenie 3D (2012)
Библиотека кодирования : x264 core 128 r2216 198a7ea
Настройки программы : cabac=1 / ref=4 / deblock=1:-3:-3 / analyse=0x3:0x113 / me=tesa / subme=11 / psy=1 / psy_rd=0.90:0.00 / mixed_ref=1 / me_range=48 / chroma_me=1 / trellis=2 / 8x8dct=1 / cqm=0 / deadzone=21,11 / fast_pskip=0 / chroma_qp_offset=-2 / threads=12 / lookahead_threads=2 / sliced_threads=0 / nr=0 / decimate=0 / interlaced=0 / bluray_compat=0 / constrained_intra=0 / bframes=7 / b_pyramid=2 / b_adapt=2 / b_bias=0 / direct=3 / weightb=1 / open_gop=0 / weightp=2 / keyint=250 / keyint_min=23 / scenecut=40 / intra_refresh=0 / rc=2pass / mbtree=0 / bitrate=13500 / ratetol=1.0 / qcomp=0.60 / qpmin=0 / qpmax=69 / qpstep=4 / cplxblur=20.0 / qblur=0.5 / ip_ratio=1.40 / pb_ratio=1.30 / aq=1:0.70
Язык : English
Default : Да
Forced : Нет

Аудио #1
Идентификатор : 2
Формат : AC-3
Формат/Информация : Audio Coding 3
Расширение режима : CM (complete main)
Параметр Endianness формата : Big
Идентификатор кодека : A_AC3
Продолжительность : 1 ч. 26 м.
Вид битрейта : Постоянный
Битрейт : 640 Кбит/сек
Каналы : 6 каналов
Расположение каналов : Front: L C R, Side: L R, LFE
Частота : 48,0 КГц
Битовая глубина : 16 бит
Метод сжатия : С потерями
Размер потока : 398 Мбайт (4%)
Заголовок : AC3 / 5.1 ch / 640 kbps / Русский дубляж BD EUR
Язык : Russian
Default : Да
Forced : Нет

Аудио #2
Идентификатор : 3
Формат : AC-3
Формат/Информация : Audio Coding 3
Расширение режима : CM (complete main)
Параметр Endianness формата : Big
Идентификатор кодека : A_AC3
Продолжительность : 1 ч. 26 м.
Вид битрейта : Постоянный
Битрейт : 640 Кбит/сек
Каналы : 6 каналов
Расположение каналов : Front: L C R, Side: L R, LFE
Частота : 48,0 КГц
Битовая глубина : 16 бит
Метод сжатия : С потерями
Размер потока : 398 Мбайт (4%)
Заголовок : AC3 / 5.1 ch / 640 kbps / Украинский дубляж BD EUR
Язык : Ukrainian
Default : Нет
Forced : Нет

Аудио #3
Идентификатор : 4
Формат : AC-3
Формат/Информация : Audio Coding 3
Расширение режима : CM (complete main)
Параметр Endianness формата : Big
Идентификатор кодека : A_AC3
Продолжительность : 1 ч. 26 м.
Вид битрейта : Постоянный
Битрейт : 640 Кбит/сек
Каналы : 6 каналов
Расположение каналов : Front: L C R, Side: L R, LFE
Частота : 48,0 КГц
Битовая глубина : 16 бит
Метод сжатия : С потерями
Размер потока : 398 Мбайт (4%)
Заголовок : AC3 / 5.1 ch / 640 kbps / Английский original BD EUR
Язык : English
Default : Нет
Forced : Нет

Текст #1
Идентификатор : 5
Формат : UTF-8
Идентификатор кодека : S_TEXT/UTF8
Идентификатор кодека/Информация : UTF-8 Plain Text
Заголовок : Forced BD EUR
Язык : Russian
Default : Да
Forced : Нет

Текст #2
Идентификатор : 6
Формат : UTF-8
Идентификатор кодека : S_TEXT/UTF8
Идентификатор кодека/Информация : UTF-8 Plain Text
Заголовок : Full BD EUR
Язык : Russian
Default : Нет
Forced : Нет

Текст #3
Идентификатор : 7
Формат : UTF-8
Идентификатор кодека : S_TEXT/UTF8
Идентификатор кодека/Информация : UTF-8 Plain Text
Заголовок : Forced BD EUR
Язык : Ukrainian
Default : Нет
Forced : Нет

Текст #4
Идентификатор : 8
Формат : UTF-8
Идентификатор кодека : S_TEXT/UTF8
Идентификатор кодека/Информация : UTF-8 Plain Text
Заголовок : Full BD EUR
Язык : Ukrainian
Default : Нет
Forced : Нет

Текст #5
Идентификатор : 9
Формат : UTF-8
Идентификатор кодека : S_TEXT/UTF8
Идентификатор кодека/Информация : UTF-8 Plain Text
Заголовок : SDH BD EUR
Язык : English
Default : Нет
Forced : Нет

Текст #6
Идентификатор : 10
Формат : UTF-8
Идентификатор кодека : S_TEXT/UTF8
Идентификатор кодека/Информация : UTF-8 Plain Text
Заголовок : Full BD EUR
Язык : English
Default : Нет
Forced : Нет

Меню
00:00:00.000 : en:00:00:00.000
00:05:25.325 : en:00:05:25.325
00:11:17.218 : en:00:11:17.218
00:15:32.014 : en:00:15:32.014
00:19:28.292 : en:00:19:28.292
00:26:09.318 : en:00:26:09.318
00:31:59.793 : en:00:31:59.793
00:35:52.525 : en:00:35:52.525
00:41:12.178 : en:00:41:12.178
00:46:44.385 : en:00:46:44.385
00:50:13.344 : en:00:50:13.344
00:55:24.863 : en:00:55:24.863
01:03:47.198 : en:01:03:47.198
01:09:25.995 : en:01:09:25.995
01:16:44.934 : en:01:16:44.934
01:20:08.804 : en:01:20:08.804








   Похожие торренты   Торрент   Размер 
В этой теме нет новых непрочитанных сообщений. Франкенвини / Frankenweenie (2012) BDRip 1080p от HQ-ViDEO | Лицензия

0 | 2

10.45 ГБ

В этой теме нет новых непрочитанных сообщений. Франкенвини / Frankenweenie (2012) BDRip 1080p от Youtracker | D

35 | 8

8.14 ГБ

В этой теме нет новых непрочитанных сообщений. Франкенвини / Frankenweenie (2012) BDRip от HQ-ViDEO | Лицензия

19 | 3

1.46 ГБ

В этой теме нет новых непрочитанных сообщений. Франкенвини / Frankenweenie (2012) BDRip-AVC от HQ-ViDEO | Лицензия

6 | 3

1.46 ГБ

В этой теме нет новых непрочитанных сообщений. Франкенвини / Frankenweenie (2012) BDRip 720p от HQ-ViDEO | Лицензия

8 | 9

4.7 ГБ

В этой теме нет новых непрочитанных сообщений. Франкенвини / Frankenweenie (2012) DVD9 от Youtracker | лицензия

6 | 2

5.82 ГБ

В этой теме нет новых непрочитанных сообщений. Франкенвини / Frankenweenie (2012) BDRemux 1080p от Youtracker | D

0 | 2

23.09 ГБ




Вы не можете начинать темы
Вы не можете отвечать на сообщения
Вы не можете редактировать свои сообщения
Вы не можете удалять свои сообщения
Вы не можете добавлять вложения

Перейти:  
Для Мосгорсуда, Роскомнадзора и рекламодателей: mosgorsud-torrent[собачка]yandex.ru
 Вход
ppkBB3cker v.2 © 2008-2014 @ PPK
[ Time : 0.045s | 15 Queries | GZIP : Off ]

Торрент трекер RUTOR.IN, Не можете зайти на rutor.org? Какой новый адрес рутор? Какое зеркало рутор? Не работает rutor.org и зеркала? Тогда наш торрент специально для вас. Rutor.in неофициальное зеркало rutor. В случае если у Вас заблокирован rutor или вдруг Вы не можете на него зайти, то Вы без труда сможете скачать бесплатно и без рекламы последние новинки кино, игр, сериалов и прочего у нас, на Rutor.in. Не нужно использовать прокси, чтобы зайти на рутор, достаточно воспользоваться нашим ресурсом. Все новые фильмы, игры, сериалы, книги и музыка за 2013 и 2014 годы через торрент бесплатно. Скачивайте фильмы в хорошем качестве, игры для пк, xbox, playstation без регистрации. У нас вы найдете новые Зарубежные сериалы и Русские сериалы 2013, 2014, 2015 годов. Оставайтесь с нами, качайте любимые фильмы, игры, сериалы, книги и музыку.