img image001 image001 image001 image001 image001 image001 image001 image001 image001 image001 image001 image001 image001 image001 image001

Planets Sun Sun Sun
Статистика раздачи
Автор: Снежана | Размер: 5.77 ГБ | Добавлен: 27 июл 2013
Раздают: 147    Качают: 6
Скачать торрент
Скачать торрент
Описание торрента

СообщениеДобавлено: 27 июл 2013 

#77

Информация о фильме
Название: В гости к Робинсонам
Оригинальное название: Meet the Robinsons
Год выхода: 2007
Жанр: мультфильм, фантастика, комедия, приключения, семейный
Режиссер: Стивен Дж. Андерсон
В ролях: Анджела Бассетт, Дэниэл Хансен, Джордан Фрай, Мэттью Майкл Джостен, Джон Х. Х. Форд, Дара МакГарри, Том Кенни, Лори Меткаф, Дон Холл, Пол Батчер....

О фильме:
Льюис растет без родителей и страстно мечтает найти свою семью. На счастье, у Льюиса неуемное воображение и поразительные способности к изобретению разных фантастических приспособлений. Из разных попавшихся под руку деталей он мастерит устройство для проявки воспоминаний, чтобы увидеть хотя бы лицо своей мамы, которая еще младенцем подбросила его в сиротский приют. Но на школьной выставке, где Льюис должен представить свой сканер памяти в действии, происходит невероятное. Сначала Льюис знакомится со своим ровесником Уилбером, который представляется прилетевшим из будущего сотрудником «Службы контроля времени». А потом еще один пришелец, зловещий тип в черном котелке, похищает изобретение Льюиса и устраивает на выставке полнейший разгром. Чтобы поймать мошенника и вернуть все на свои места, ребята отправятся в будущее, где Льюиса ждет масса захватывающих приключений. Он прокатится на машине времени, подружится с роботом Карлом, поучаствует в схватке со сторожевым динозавром, спасет весь мир от происков злодея и его котелка, а самое главное — познакомится с многочисленной, дружной и взбалмошной семейкой Робинсонов, и найдет в их лице долгожданных родственников.



Страна: США
Продолжительность: 01:35:07
Перевод: Дубляж + Оригинал

Файл
Кодек: H264
Качество: BDRip 1080p
Видео: 1920x1080, 7443 Kbps, 23,976 fps
Звук: 48 kHz, AC3, 6c, 640 kbps (Дубляж)
Звук: 48 kHz, AC3, 6c, 640 kbps (Оригинал)
Субтитры: Русские, английские

Семпл



Общее
Уникальный идентификатор : 204746490426224215700087503657649585826 (0x9A08BD5C748EC35C857988120C903EA2)
Формат : Matroska
Версия формата : Version 4 / Version 2
Размер файла : 5,77 Гбайт
Продолжительность : 1 ч. 35 м.
Общий поток : 8678 Кбит/сек
Название фильма : Meet the Robinsons (2007) BDRip 1080p от Dimok
Дата кодирования : UTC 2013-01-26 22:07:46
Программа кодирования : mkvmerge v6.0.0 ('Coming Up For Air') built on Jan 20 2013 09:52:00
Библиотека кодирования : libebml v1.3.0 + libmatroska v1.4.0
Attachment : Yes

Видео
Идентификатор : 1
Формат : AVC
Формат/Информация : Advanced Video Codec
Профиль формата : High@L4.1
Параметр CABAC формата : Да
Параметр ReFrames формата : 4 кадра
Идентификатор кодека : V_MPEG4/ISO/AVC
Продолжительность : 1 ч. 35 м.
Битрейт : 7443 Кбит/сек
Ширина : 1920 пикселей
Высота : 1080 пикселей
Соотношение сторон : 16:9
Режим частоты кадров : Постоянный
Частота кадров : 23,976 кадра/сек
Цветовое пространство : YUV
Субдискретизация насыщенности : 4:2:0
Битовая глубина : 8 бит
Тип развёртки : Прогрессивная
Бит/(Пиксели*Кадры) : 0.150
Размер потока : 4,80 Гбайт (83%)
Библиотека кодирования : x264 core 129 r2245 bc13772
Настройки программы : cabac=1 / ref=4 / deblock=1:0:0 / analyse=0x3:0x133 / me=umh / subme=10 / psy=1 / psy_rd=1.00:0.10 / mixed_ref=1 / me_range=32 / chroma_me=1 / trellis=2 / 8x8dct=1 / cqm=0 / deadzone=21,11 / fast_pskip=0 / chroma_qp_offset=-3 / threads=12 / lookahead_threads=2 / sliced_threads=0 / nr=0 / decimate=1 / interlaced=0 / bluray_compat=0 / constrained_intra=0 / bframes=3 / b_pyramid=2 / b_adapt=2 / b_bias=0 / direct=3 / weightb=1 / open_gop=0 / weightp=2 / keyint=240 / keyint_min=23 / scenecut=40 / intra_refresh=0 / rc_lookahead=68 / rc=2pass / mbtree=1 / bitrate=7443 / ratetol=1.0 / qcomp=0.62 / qpmin=0 / qpmax=69 / qpstep=4 / cplxblur=20.0 / qblur=0.5 / ip_ratio=1.40 / aq=1:1.00
Язык : English
Default : Да
Forced : Нет

Аудио #1
Идентификатор : 2
Формат : AC-3
Формат/Информация : Audio Coding 3
Расширение режима : CM (complete main)
Параметр Endianness формата : Big
Идентификатор кодека : A_AC3
Продолжительность : 1 ч. 35 м.
Вид битрейта : Постоянный
Битрейт : 640 Кбит/сек
Каналы : 6 каналов
Расположение каналов : Front: L C R, Side: L R, LFE
Частота : 48,0 КГц
Битовая глубина : 16 бит
Метод сжатия : С потерями
Размер потока : 435 Мбайт (7%)
Заголовок : Дубляж Dub Blu-ray
Язык : Russian
Default : Да
Forced : Нет

Аудио #2
Идентификатор : 3
Формат : AC-3
Формат/Информация : Audio Coding 3
Расширение режима : CM (complete main)
Параметр Endianness формата : Big
Идентификатор кодека : A_AC3
Продолжительность : 1 ч. 35 м.
Вид битрейта : Постоянный
Битрейт : 640 Кбит/сек
Каналы : 6 каналов
Расположение каналов : Front: L C R, Side: L R, LFE
Частота : 48,0 КГц
Битовая глубина : 16 бит
Метод сжатия : С потерями
Размер потока : 435 Мбайт (7%)
Заголовок : ENG
Язык : English
Default : Нет
Forced : Нет

Текст #1
Идентификатор : 4
Формат : UTF-8
Идентификатор кодека : S_TEXT/UTF8
Идентификатор кодека/Информация : UTF-8 Plain Text
Заголовок : RUS
Язык : Russian
Default : Да
Forced : Нет

Текст #2
Идентификатор : 5
Формат : UTF-8
Идентификатор кодека : S_TEXT/UTF8
Идентификатор кодека/Информация : UTF-8 Plain Text
Заголовок : ENG
Язык : English
Default : Нет
Forced : Нет

Меню
00:00:00.000 : en:An Orphan
00:07:55.308 : en:The Memory Scanner
00:09:32.070 : en:The Science Fair
00:18:37.074 : en:Wilbur
00:21:27.578 : en:Arriving in the Future
00:22:53.038 : en:Crash Landing
00:25:17.725 : en:The Bowler Hat Guy
00:29:53.125 : en:Meeting the Family
00:38:59.003 : en:Bad Advice for Goob
00:41:39.288 : en:Keep Moving Forward
00:44:27.123 : en:A Mini-Doris
00:45:51.707 : en:Staying for Dinner
00:48:39.667 : en:An Awesome Failure
00:53:00.094 : en:The T-Rex Attack
00:57:29.738 : en:Part of the Family
01:02:13.897 : en:Doris' Brilliant Plan
01:08:39.198 : en:A Frightening Future
01:15:30.651 : en:We Are One Smart Kid
01:23:09.693 : en:Lewis Finds His Family
01:27:50.055 : en:End Credits



   Похожие торренты   Торрент   Размер 
В этой теме нет новых непрочитанных сообщений. В гости к Робинсонам / Meet the Robinsons (2007) BDRip 1080p

6 | 2

9 ГБ

В этой теме нет новых непрочитанных сообщений. В гости к Робинсонам / Meet the Robinsons (2007) BDrip 1080p | 3D-Video

7 | 2

6.01 ГБ

В этой теме нет новых непрочитанных сообщений. В гости к Робинсонам / Meet the Robinsons (2007) BDRip-AVC от HQCLUB

65 | 7

2.18 ГБ

В этой теме нет новых непрочитанных сообщений. В гости к Робинсонам / Meet the Robinsons (2007) BDRip от RAMpage CHG

208 | 8

701.31 МБ

В этой теме нет новых непрочитанных сообщений. В гости к Робинсонам / Meet the Robinsons (2007) BDRip от HQCLUB

522 | 35

1.45 ГБ

В этой теме нет новых непрочитанных сообщений. В гости к Робинсонам / Meet the Robinsons (2007) BDRip от HQ-ViDEO

95 | 5

1.45 ГБ

В этой теме нет новых непрочитанных сообщений. В гости к Робинсонам / Meet the Robinsons (2007) BDRip 720p

10 | 4

4.57 ГБ




Вы не можете начинать темы
Вы не можете отвечать на сообщения
Вы не можете редактировать свои сообщения
Вы не можете удалять свои сообщения
Вы не можете добавлять вложения

Перейти:  
Для Мосгорсуда, Роскомнадзора и рекламодателей: mosgorsud-torrent[собачка]yandex.ru
 Вход
ppkBB3cker v.2 © 2008-2014 @ PPK
[ Time : 0.040s | 14 Queries | GZIP : Off ]

Торрент трекер RUTOR.IN, Не можете зайти на rutor.org? Какой новый адрес рутор? Какое зеркало рутор? Не работает rutor.org и зеркала? Тогда наш торрент специально для вас. Rutor.in неофициальное зеркало rutor. В случае если у Вас заблокирован rutor или вдруг Вы не можете на него зайти, то Вы без труда сможете скачать бесплатно и без рекламы последние новинки кино, игр, сериалов и прочего у нас, на Rutor.in. Не нужно использовать прокси, чтобы зайти на рутор, достаточно воспользоваться нашим ресурсом. Все новые фильмы, игры, сериалы, книги и музыка за 2013 и 2014 годы через торрент бесплатно. Скачивайте фильмы в хорошем качестве, игры для пк, xbox, playstation без регистрации. У нас вы найдете новые Зарубежные сериалы и Русские сериалы 2013, 2014, 2015 годов. Оставайтесь с нами, качайте любимые фильмы, игры, сериалы, книги и музыку.