img image001 image001 image001 image001 image001 image001 image001 image001 image001 image001 image001 image001 image001 image001 image001

Planets Sun Sun Sun
Статистика раздачи
Автор: Снежана | Размер: 8.14 ГБ | Добавлен: 27 июл 2013
Раздают: 35    Качают: 8
Скачать торрент
Скачать торрент
Описание торрента

СообщениеДобавлено: 27 июл 2013 

«The electrifying dog is back from beyond the grave»

#77
Страна: США
Жанр: мультфильм, ужасы, фантастика, комедия
Год выпуска: 2012
Продолжительность: 01:26:56
Перевод: Профессиональный (дублированный)
Оригинальная аудиодорожка: английский
Субтитры: русский (full, forced), украинский (full, forced), английский (full, SDH) - формат субтитров SoftSub (srt)

Режиссер: Тим Бёртон / Tim Burton

В ролях: Чарли Тахэн, Кэтрин О’Хара, Мартин Шорт, Мартин Ландау, Аттикус Шаффер, Вайнона Райдер, Роберт Капрон, Джеймс Хироюки Лиао, Кончата Феррелл, Том Кенни...

Описание: Обожаемый мальчиком Виктором пес Спарки погибает в результате несчастного случая. Мальчик, не желая мириться с потерей друга, призывает науку на помощь и…возвращает питомца к жизни! Казалось бы, все не так уж плохо, но когда Спарки сбегает от Виктора, его друзья, родители, учителя и жители городка узнают, что возвращение к жизни домашнего питомца может повлечь за собой неожиданные и даже ужасные последствия!





Качество видео: BDRip 1080p [Frankenvini.2012.BDRemux.1080p_[Youtracker].mkv]
Формат видео: MKV

Видео: 1920x1040 (1.85:1), MPEG-4 AVC Video 11,5 Мбит/сек 1080p / 23,976 fps / High Profile 4.1 / Бит/(Пиксели*Кадры): 0.240
Аудио:
Dolby Digital Audio Russian 640 kbps 5.1 / 48 kHz / 640 kbps
Dolby Digital Audio English 640 kbps 5.1 / 48 kHz / 640 kbps
Dolby Digital Audio Ukrainian 640 kbps 5.1 / 48 kHz / 640 kbps

Раздача от:
Общее
Полное имя : Frankenvini.2012.BDRip.1080p_[Youtracker].mkv.mkv
Формат : Matroska
Версия формата : Version 4 / Version 2
Размер файла : 8,14 Гбайт
Продолжительность : 1 ч. 26 м.
Общий поток : 13,4 Мбит/сек
Дата кодирования : UTC 2010-02-22 21:41:31
Программа кодирования : mkvmerge v5.9.0 ('On The Loose') built on Dec 9 2012 15:37:01
Библиотека кодирования : libebml v1.3.0 + libmatroska v1.4.0

Видео
Идентификатор : 1
Формат : AVC
Формат/Информация : Advanced Video Codec
Профиль формата : High@L4.1
Параметр CABAC формата : Да
Параметр ReFrames формата : 4 кадра
Идентификатор кодека : V_MPEG4/ISO/AVC
Продолжительность : 1 ч. 26 м.
Битрейт : 11,5 Мбит/сек
Ширина : 1920 пикселей
Высота : 1040 пикселей
Соотношение сторон : 1,85:1
Частота кадров : 23,976 кадра/сек
Цветовое пространство : YUV
Субдискретизация насыщенности : 4:2:0
Битовая глубина : 8 бит
Тип развёртки : Прогрессивная
Бит/(Пиксели*Кадры) : 0.240
Размер потока : 6,82 Гбайт (84%)
Заголовок : Frankenweenie (2012)
Библиотека кодирования : x264 core 128 r2216 198a7ea
Настройки программы : cabac=1 / ref=4 / deblock=1:-2:-2 / analyse=0x3:0x113 / me=umh / subme=10 / psy=1 / psy_rd=1.00:0.40 / mixed_ref=1 / me_range=16 / chroma_me=1 / trellis=2 / 8x8dct=1 / cqm=0 / deadzone=21,11 / fast_pskip=1 / chroma_qp_offset=-4 / threads=3 / lookahead_threads=1 / sliced_threads=0 / nr=0 / decimate=0 / interlaced=0 / bluray_compat=0 / constrained_intra=0 / bframes=8 / b_pyramid=2 / b_adapt=2 / b_bias=0 / direct=3 / weightb=1 / open_gop=0 / weightp=2 / keyint=240 / keyint_min=23 / scenecut=40 / intra_refresh=0 / rc_lookahead=60 / rc=2pass / mbtree=0 / bitrate=11500 / ratetol=1.0 / qcomp=0.70 / qpmin=0 / qpmax=69 / qpstep=4 / cplxblur=20.0 / qblur=0.5 / vbv_maxrate=40000 / vbv_bufsize=40000 / nal_hrd=none / ip_ratio=1.40 / pb_ratio=1.30 / aq=1:0.70
Язык : English
Default : Да
Forced : Нет

Аудио #1
Идентификатор : 2
Формат : AC-3
Формат/Информация : Audio Coding 3
Расширение режима : CM (complete main)
Параметр Endianness формата : Big
Идентификатор кодека : A_AC3
Продолжительность : 1 ч. 26 м.
Вид битрейта : Постоянный
Битрейт : 640 Кбит/сек
Каналы : 6 каналов
Расположение каналов : Front: L C R, Side: L R, LFE
Частота : 48,0 КГц
Битовая глубина : 16 бит
Метод сжатия : С потерями
Размер потока : 398 Мбайт (5%)
Заголовок : AC3 / 5.1 ch / 640 kbps / Русский дубляж BD EUR
Язык : Russian
Default : Да
Forced : Нет

Аудио #2
Идентификатор : 3
Формат : AC-3
Формат/Информация : Audio Coding 3
Расширение режима : CM (complete main)
Параметр Endianness формата : Big
Идентификатор кодека : A_AC3
Продолжительность : 1 ч. 26 м.
Вид битрейта : Постоянный
Битрейт : 640 Кбит/сек
Каналы : 6 каналов
Расположение каналов : Front: L C R, Side: L R, LFE
Частота : 48,0 КГц
Битовая глубина : 16 бит
Метод сжатия : С потерями
Размер потока : 398 Мбайт (5%)
Заголовок : AC3 / 5.1 ch / 640 kbps / Украинский дубляж BD EUR
Язык : Ukrainian
Default : Нет
Forced : Нет

Аудио #3
Идентификатор : 4
Формат : AC-3
Формат/Информация : Audio Coding 3
Расширение режима : CM (complete main)
Параметр Endianness формата : Big
Идентификатор кодека : A_AC3
Продолжительность : 1 ч. 26 м.
Вид битрейта : Постоянный
Битрейт : 640 Кбит/сек
Каналы : 6 каналов
Расположение каналов : Front: L C R, Side: L R, LFE
Частота : 48,0 КГц
Битовая глубина : 16 бит
Метод сжатия : С потерями
Размер потока : 398 Мбайт (5%)
Заголовок : AC3 / 5.1 ch / 640 kbps / Английский original BD EUR
Язык : English
Default : Нет
Forced : Нет

Текст #1
Идентификатор : 5
Формат : UTF-8
Идентификатор кодека : S_TEXT/UTF8
Идентификатор кодека/Информация : UTF-8 Plain Text
Заголовок : Forced BD EUR
Язык : Russian
Default : Да
Forced : Нет

Текст #2
Идентификатор : 6
Формат : UTF-8
Идентификатор кодека : S_TEXT/UTF8
Идентификатор кодека/Информация : UTF-8 Plain Text
Заголовок : Full BD EUR
Язык : Russian
Default : Нет
Forced : Нет

Текст #3
Идентификатор : 7
Формат : UTF-8
Идентификатор кодека : S_TEXT/UTF8
Идентификатор кодека/Информация : UTF-8 Plain Text
Заголовок : Forced BD EUR
Язык : Ukrainian
Default : Нет
Forced : Нет

Текст #4
Идентификатор : 8
Формат : UTF-8
Идентификатор кодека : S_TEXT/UTF8
Идентификатор кодека/Информация : UTF-8 Plain Text
Заголовок : Full BD EUR
Язык : Ukrainian
Default : Нет
Forced : Нет

Текст #5
Идентификатор : 9
Формат : UTF-8
Идентификатор кодека : S_TEXT/UTF8
Идентификатор кодека/Информация : UTF-8 Plain Text
Заголовок : SDH BD EUR
Язык : English
Default : Нет
Forced : Нет

Текст #6
Идентификатор : 10
Формат : UTF-8
Идентификатор кодека : S_TEXT/UTF8
Идентификатор кодека/Информация : UTF-8 Plain Text
Заголовок : Full BD EUR
Язык : English
Default : Нет
Forced : Нет

Меню
00:00:00.000 : en:00:00:00.000
00:05:25.325 : en:00:05:25.325
00:11:17.218 : en:00:11:17.218
00:15:32.014 : en:00:15:32.014
00:19:28.292 : en:00:19:28.292
00:26:09.318 : en:00:26:09.318
00:31:59.793 : en:00:31:59.793
00:35:52.525 : en:00:35:52.525
00:41:12.178 : en:00:41:12.178
00:46:44.385 : en:00:46:44.385
00:50:13.344 : en:00:50:13.344
00:55:24.863 : en:00:55:24.863
01:03:47.198 : en:01:03:47.198
01:09:25.995 : en:01:09:25.995
01:16:44.934 : en:01:16:44.934
01:20:08.804 : en:01:20:08.804



Торрент файл заменен 29 января 2013 года, улучшена видеодорожка, добавлены субтитры, спасибо Killbrain



   Похожие торренты   Торрент   Размер 
В этой теме нет новых непрочитанных сообщений. Франкенвини / Frankenweenie (2012) BDRip 1080p от Youtracker | 3D-Video | Лицензия

389 | 9

9.36 ГБ

В этой теме нет новых непрочитанных сообщений. Франкенвини / Frankenweenie (2012) Blu-ray 1080p от HDCLUB и Youtracker | D

0 | 2

38.76 ГБ

В этой теме нет новых непрочитанных сообщений. Франкенвини / Frankenweenie (2012) BDRemux 1080p от Youtracker | D

0 | 2

23.09 ГБ

В этой теме нет новых непрочитанных сообщений. Франкенвини / Frankenweenie (2012) BDRip от Youtracker | D

2 | 2

745.61 МБ

В этой теме нет новых непрочитанных сообщений. Франкенвини / Frankenweenie (2012) BDRip от Youtracker | D

0 | 3

1.73 ГБ

В этой теме нет новых непрочитанных сообщений. Франкенвини / Frankenweenie (2012) BDRip от Youtracker | D

5 | 2

2.2 ГБ

В этой теме нет новых непрочитанных сообщений. Франкенвини / Frankenweenie (2012) BDRip 720p от Youtracker | D

0 | 2

5.14 ГБ




Вы не можете начинать темы
Вы не можете отвечать на сообщения
Вы не можете редактировать свои сообщения
Вы не можете удалять свои сообщения
Вы не можете добавлять вложения

Перейти:  
Для Мосгорсуда, Роскомнадзора и рекламодателей: mosgorsud-torrent[собачка]yandex.ru
 Вход
ppkBB3cker v.2 © 2008-2014 @ PPK
[ Time : 0.043s | 14 Queries | GZIP : Off ]

Торрент трекер RUTOR.IN, Не можете зайти на rutor.org? Какой новый адрес рутор? Какое зеркало рутор? Не работает rutor.org и зеркала? Тогда наш торрент специально для вас. Rutor.in неофициальное зеркало rutor. В случае если у Вас заблокирован rutor или вдруг Вы не можете на него зайти, то Вы без труда сможете скачать бесплатно и без рекламы последние новинки кино, игр, сериалов и прочего у нас, на Rutor.in. Не нужно использовать прокси, чтобы зайти на рутор, достаточно воспользоваться нашим ресурсом. Все новые фильмы, игры, сериалы, книги и музыка за 2013 и 2014 годы через торрент бесплатно. Скачивайте фильмы в хорошем качестве, игры для пк, xbox, playstation без регистрации. У нас вы найдете новые Зарубежные сериалы и Русские сериалы 2013, 2014, 2015 годов. Оставайтесь с нами, качайте любимые фильмы, игры, сериалы, книги и музыку.