img image001 image001 image001 image001 image001 image001 image001 image001 image001 image001 image001 image001 image001 image001 image001

Planets Sun Sun Sun
Статистика раздачи
Автор: Снежана | Размер: 3.9 ГБ | Добавлен: 27 июл 2013
Раздают: 86    Качают: 8
Скачать торрент
Скачать торрент
Описание торрента

СообщениеДобавлено: 27 июл 2013 

#77

Информация о фильме
Название: Три богатыря на дальних берегах
Год выхода: 2012
Жанр: Мультфильм, приключения, семейный
Режиссер: Константин Феоктистов
В ролях: Сергей Маковецкий, Елизавета Боярская, Фёдор Бондарчук, Дмитрий Быковский, Елена Шульман, Олег Куликович, Лия Медведева, Мария Цветкова, Дмитрий Высоцкий, Анатолий Петров, Наталья Данилова

О фильме:
Очередное путешествие таит в себе не только новые опасности, но и новые земли. Герои держат путь далеко от дома и как всегда с благородной целью — помочь людям. Кому, зачем и как? Не по-богатырски это — в раздумья пускаться, когда время поджимает и нужно действовать! Правда, помощь иной раз оказывается хуже татарской орды, но богатыри не отчаиваются, тем более что у них много верных помощников. Ради спасения своих друзей, героям придется подчас идти на очень решительные шаги, жертвовать собой и не думать, что ждет их впереди. Но, как известно, удача любит смелых и отважных.

Страна: Россия
Студия: Кинокомпания СТВ, Студия Мельница
Продолжительность: 01:11:18
Перевод: Русский [лицензия]

Файл
Кодек: MPEG-4 AVC
Качество: BDRip 1080p
Видео: 1920x1080, 6157 kbps, 23.976 fps
Звук: DTS 5.1 @ 1510 kbps



Общее
Уникальный идентификатор : 252260245208391918146663299385823995590 (0xBDC78E562E8E975CB78DC4CD5F8E26C6)
Полное имя : D:Tri.bogatyrja.na.dalnih.beregah.2012.O.BDRip.1080p.mkv
Формат : Matroska
Версия формата : Version 2
Размер файла : 3,90 Гбайт
Продолжительность : 1 ч. 11 м.
Общий поток : 7823 Кбит/сек
Название фильма : IRONCLUB
Дата кодирования : UTC 2013-01-29 23:11:51
Программа кодирования : mkvmerge v5.2.1 ('A Far Off Place') built on Jan 7 2012 21:56:27
Библиотека кодирования : libebml v1.2.3 + libmatroska v1.3.0

Видео
Идентификатор : 1
Формат : AVC
Формат/Информация : Advanced Video Codec
Профиль формата : High@L4.1
Параметр CABAC формата : Да
Параметр ReFrames формата : 4 кадра
Идентификатор кодека : V_MPEG4/ISO/AVC
Продолжительность : 1 ч. 11 м.
Битрейт : 6157 Кбит/сек
Ширина : 1920 пикселей
Высота : 1080 пикселей
Соотношение сторон : 16:9
Частота кадров : 23,976 кадра/сек
Цветовое пространство : YUV
Субдискретизация насыщенности : 4:2:0
Битовая глубина : 8 бит
Тип развёртки : Прогрессивная
Бит/(Пиксели*Кадры) : 0.124
Размер потока : 3,07 Гбайт (79%)
Заголовок : Tri bogatyrja na dalnih beregah 2012 1080p BluRay DTS x264-IRONCLUB
Библиотека кодирования : x264 core 129 r2245kMod bc13772
Настройки программы : cabac=1 / ref=4 / deblock=1:-1:-1 / analyse=0x3:0x113 / me=umh / subme=11 / psy=1 / fade_compensate=0.00 / psy_rd=0.80:0.00 / mixed_ref=1 / me_range=24 / chroma_me=1 / trellis=2 / 8x8dct=1 / cqm=0 / deadzone=21,11 / fast_pskip=0 / chroma_qp_offset=-2 / threads=12 / lookahead_threads=2 / sliced_threads=0 / nr=0 / decimate=1 / interlaced=0 / bluray_compat=0 / constrained_intra=0 / bframes=9 / b_pyramid=2 / b_adapt=2 / b_bias=0 / direct=3 / weightb=1 / open_gop=0 / weightp=2 / keyint=250 / keyint_min=23 / scenecut=40 / intra_refresh=0 / rc_lookahead=80 / rc=crf / mbtree=0 / crf=15.5000 / qcomp=0.65 / qpmin=0 / qpmax=69 / qpstep=4 / vbv_maxrate=50000 / vbv_bufsize=62500 / crf_max=0.0 / nal_hrd=none / ip_ratio=1.30 / pb_ratio=1.20 / aq=2:0.60
Язык : Russian
Default : Да
Forced : Да

Аудио
Идентификатор : 2
Формат : DTS
Формат/Информация : Digital Theater Systems
Идентификатор кодека : A_DTS
Продолжительность : 1 ч. 11 м.
Вид битрейта : Постоянный
Битрейт : 1510 Кбит/сек
Каналы : 6 каналов
Расположение каналов : Front: L C R, Side: L R, LFE
Частота : 48,0 КГц
Битовая глубина : 24 бит
Метод сжатия : С потерями
Размер потока : 770 Мбайт (19%)
Заголовок : DTS 5.1 @ 1510 kbps
Язык : Russian
Default : Да
Forced : Да

Меню
00:00:00.000 : ru:00:00:00.000
00:05:42.342 : ru:00:05:42.342
00:10:39.597 : ru:00:10:39.597
00:16:36.704 : ru:00:16:36.704
00:24:05.861 : ru:00:24:05.861
00:30:40.004 : ru:00:30:40.004
00:35:16.364 : ru:00:35:16.364
00:42:07.983 : ru:00:42:07.983
00:49:30.759 : ru:00:49:30.759
00:54:38.817 : ru:00:54:38.817
01:00:39.761 : ru:01:00:39.761
01:06:27.233 : ru:01:06:27.233
x264 [info]: frame I:1196 Avg QP:11.32 size:317526
x264 [info]: frame P:28510 Avg QP:13.53 size: 60773
x264 [info]: frame B:72868 Avg QP:15.30 size: 17329



   Похожие торренты   Торрент   Размер 
В этой теме нет новых непрочитанных сообщений. Три богатыря на дальних берегах (2012) BDRip 1080p

456 | 34

2.19 ГБ

В этой теме нет новых непрочитанных сообщений. Три богатыря на дальних берегах (2012) BDRip 1080p [Hi10P] от FREEISLAND

28 | 14

2.91 ГБ

В этой теме нет новых непрочитанных сообщений. Три богатыря на дальних берегах (2012) BDRip 1080p от Youtracker | 3D-Video

546 | 35

3.9 ГБ

В этой теме нет новых непрочитанных сообщений. Три богатыря на дальних берегах (2012) Blu-Ray 1080p

13 | 6

9.24 ГБ

В этой теме нет новых непрочитанных сообщений. Три богатыря на дальних берегах (2012) BDRip от Youtracker

260 | 19

744.98 МБ

В этой теме нет новых непрочитанных сообщений. Три богатыря на дальних берегах (2012) BDRip от HQCLUB

95 | 12

1.09 ГБ

В этой теме нет новых непрочитанных сообщений. Три богатыря на дальних берегах (2012) BDRip by Alekxandr48

0 | 101

1.07 ГБ




Вы не можете начинать темы
Вы не можете отвечать на сообщения
Вы не можете редактировать свои сообщения
Вы не можете удалять свои сообщения
Вы не можете добавлять вложения

Перейти:  
Для Мосгорсуда, Роскомнадзора и рекламодателей: mosgorsud-torrent[собачка]yandex.ru
 Вход
ppkBB3cker v.2 © 2008-2014 @ PPK
[ Time : 0.045s | 15 Queries | GZIP : Off ]

cron