img image001 image001 image001 image001 image001 image001 image001 image001 image001 image001 image001 image001 image001 image001 image001
Planets Sun Sun Sun
Статистика раздачи
Автор: Снежана | Размер: 2.18 ГБ | Добавлен: 27 июл 2013
Раздают: 36    Качают: 7
Скачать торрент
Скачать торрент
Описание торрента

СообщениеДобавлено: 27 июл 2013 

#77


Три богатыря на дальних берегах (2012) BDRip 720p


- Информация о фильме:

Название: Три богатыря на дальних берегах
Год выхода: 2012
Жанр: мультфильм, комедия, приключения, семейный
Режиссер: Константин Феоктистов
В ролях: Дмитрий Быковский-Ромашов, Валерий Соловьев, Олег Куликович, Сергей Маковецкий, Дмитрий Высоцкий, Фёдор Бондарчук, Елизавета Боярская, Мария Цветкова-Овсянникова, Елена Шульман, Лия Медведева
О фильме:
На этот раз Алеша Попович, Добрыня Никитич и Илья Муромец, благодаря козням коварной Бабы Яги, оказываются за семью морями на острове, на котором живут туземцы и страшный Гомума. В их отсутствие купец Колыван решают вместе с Бабой-Ягой захватить царство и забрать власть у князя Киевского. На помощь незадачливому правителю приходит конь Юлий, а также жены богатырей и их многочисленные родственники. Словом, богатырей и зрителей ждут приключения на дальних берегах, обыкновенные и невероятные.

Продолжительность: 01:11:18
Перевод: Оригинал (не требуется)
Субтитры: Отсутствуют
Выпущено: Россия

- Файл:
Качество: BDRip 720p (исходник Blu-ray Disc)
Видео: 1280x720, 3995 Кбит/сек, 23.976 кадр/сек, AVC, x264, 16:9 , 0.181 Бит/(Пиксели*Кадры)
Аудио: AC-3, 384 Кбит/сек, 6 канала(ов), 48,0 КГц
Контейнер: MKV
Размер: 2,18 Гб





Автор Рипа:
General
Unique ID : 185668110947173107244324338001245587739 (0x8BAE60A128CE277AA572A5D4B497491B)
Complete name : J:три богатыряTri bogatyrya na dalnikh beregakh (2012).BDRip.720p.Rus.mkv
Format : Matroska
Format version : Version 4 / Version 2
File size : 2.18 GiB
Duration : 1h 11mn
Overall bit rate : 4 381 Kbps
Movie name : Три богатыря на дальних берегах (2012).BDRip.720p.Rus
Encoded date : UTC 2013-01-30 19:07:18
Writing application : mkvmerge v6.0.0 ('Coming Up For Air') built on Jan 20 2013 09:52:00
Writing library : libebml v1.3.0 + libmatroska v1.4.0

Video
ID : 1
Format : AVC
Format/Info : Advanced Video Codec
Format profile : High@L4.1
Format settings, CABAC : Yes
Format settings, ReFrames : 9 frames
Codec ID : V_MPEG4/ISO/AVC
Duration : 1h 11mn
Bit rate : 3 995 Kbps
Width : 1 280 pixels
Height : 720 pixels
Display aspect ratio : 16:9
Frame rate : 23.976 fps
Color space : YUV
Chroma subsampling : 4:2:0
Bit depth : 8 bits
Scan type : Progressive
Bits/(Pixel*Frame) : 0.181
Stream size : 1.95 GiB (89%)
Title : - Rip by kozak -
Writing library : x264 core 129 r2245 bc13772
Encoding settings : cabac=1 / ref=9 / deblock=1:0:0 / analyse=0x3:0x113 / me=umh / subme=11 / psy=1 / psy_rd=1.00:0.00 / mixed_ref=1 / me_range=32 / chroma_me=1 / trellis=2 / 8x8dct=1 / cqm=0 / deadzone=21,11 / fast_pskip=0 / chroma_qp_offset=-2 / threads=12 / lookahead_threads=2 / sliced_threads=0 / nr=0 / decimate=0 / interlaced=0 / bluray_compat=0 / constrained_intra=0 / bframes=12 / b_pyramid=2 / b_adapt=2 / b_bias=0 / direct=3 / weightb=1 / open_gop=0 / weightp=2 / keyint=240 / keyint_min=24 / scenecut=40 / intra_refresh=0 / rc_lookahead=60 / rc=2pass / mbtree=1 / bitrate=3995 / ratetol=1.0 / qcomp=0.60 / qpmin=0 / qpmax=51 / qpstep=4 / cplxblur=20.0 / qblur=0.5 / ip_ratio=1.40 / aq=1:1.00
Language : English
Default : Yes
Forced : No

Audio
ID : 2
Format : AC-3
Format/Info : Audio Coding 3
Mode extension : CM (complete main)
Codec ID : A_AC3
Duration : 1h 11mn
Bit rate mode : Constant
Bit rate : 384 Kbps
Channel(s) : 6 channels
Channel positions : Front: L C R, Side: L R, LFE
Sampling rate : 48.0 KHz
Bit depth : 16 bits
Compression mode : Lossy
Stream size : 196 MiB (9%)
Title : Оригинал
Language : Russian
Default : Yes
Forced : No

Menu
00:00:00.000 : en:00:00:00.000
00:05:42.342 : en:00:05:42.342
00:10:39.597 : en:00:10:39.597
00:16:36.704 : en:00:16:36.704
00:24:05.861 : en:00:24:05.861
00:30:40.005 : en:00:30:40.005
00:35:16.364 : en:00:35:16.364
00:42:07.984 : en:00:42:07.984
00:49:30.759 : en:00:49:30.759
00:54:38.817 : en:00:54:38.817
01:00:39.761 : en:01:00:39.761
01:06:27.233 : en:01:06:27.233











   Похожие торренты   Торрент   Размер 
В этой теме нет новых непрочитанных сообщений. Три богатыря на дальних берегах (2012) BDRip 720p от potroks

120 | 7

1.46 ГБ

В этой теме нет новых непрочитанных сообщений. Три богатыря на дальних берегах (2012) BDRip 1080p

86 | 8

3.9 ГБ

В этой теме нет новых непрочитанных сообщений. Три богатыря на дальних берегах (2012) BDRip от HQ-ViDEO

194 | 18

1.09 ГБ

В этой теме нет новых непрочитанных сообщений. Три богатыря на дальних берегах (2012) BDRip 1080p

456 | 34

2.19 ГБ

В этой теме нет новых непрочитанных сообщений. Три богатыря на дальних берегах (2012) BDRip от HQCLUB

95 | 12

1.09 ГБ

В этой теме нет новых непрочитанных сообщений. Три богатыря на дальних берегах (2012) BDRip-AVC от FREEISLAND

500 | 28

657.04 МБ

В этой теме нет новых непрочитанных сообщений. Три богатыря на дальних берегах (2012) BDRip by Alekxandr48

0 | 101

1.07 ГБ




Вы не можете начинать темы
Вы не можете отвечать на сообщения
Вы не можете редактировать свои сообщения
Вы не можете удалять свои сообщения
Вы не можете добавлять вложения

Перейти:  
Для Мосгорсуда, Роскомнадзора и рекламодателей: mosgorsud-torrent[собачка]yandex.ru
 Вход
ppkBB3cker v.2 © 2008-2014 @ PPK
[ Time : 0.036s | 15 Queries | GZIP : Off ]

cron