img image001 image001 image001 image001 image001 image001 image001 image001 image001 image001 image001 image001 image001 image001 image001

Planets Sun Sun Sun
Статистика раздачи
Автор: Снежана | Размер: 4.37 ГБ | Добавлен: 27 июл 2013
Раздают: 10    Качают: 3
Скачать торрент
Скачать торрент
Описание торрента

СообщениеДобавлено: 27 июл 2013 

#77

Информация о фильме
Название: Ролли и Эльф: невероятные приключения
Оригинальное название: Rolly and Elf: Unbelievable adventures
Год выхода: 2007
Жанр: мультфильм, фэнтези, семейный
Режиссер: Пекка Лехтосаари, Андрей Игнатенко
В ролях: Маккензи Крук, Лиза Стэнсфилд, Джеймс Грин, Роджер Хэммонд, Аааре Карен, Юрки Ковалефф, Сайя Лентонен, Гари Мартин, Джим МакМанус, Матти Ранин, Эса Саарио, Йен Томпсон, Аллан Туппурайнен, Уильям Вандерпюе, Джо Виатт...

О фильме:
Где-то далеко, в дремучих скандинавских лесах проживает веселый сказочный народец — Ролли. Забот у Ролли никаких, а любимое занятие — устраивать друг другу веселые, хотя и не всегда безобидные розыгрыши. Но беззаботная жизнь внезапно обрывается! В лес приходит страшная беда, грозящая погубить всех его обитателей. Единственный путь к спасению — отыскать волшебное сердце, но путь к нему полон опасных приключений — пройти его и уберечь от гибели волшебную страну помогут только дружба и преданность!



Страна: Россия, Германия, Финляндия, Великобритания
Продолжительность: 01:21:05
Перевод: Дубляж

Файл
Кодек: H264
Качество: BDRip 1080p
Видео: 1920x1080, 7068 Kbps, 23,976 fps
Звук: 48 kHz, AC3, 6c, 640 kbps (Дубляж)
Субтитры: Нет

Семпл



Общее
Уникальный идентификатор : 243074835987524354198957303679029125230 (0xB6DE82B27503218BA632D28BD74CA06E)
Формат : Matroska
Версия формата : Version 4 / Version 2
Размер файла : 4,37 Гбайт
Продолжительность : 1 ч. 21 м.
Общий поток : 7710 Кбит/сек
Название фильма : Rolly and Elf: Unbelievable adventures (2007) BDRip 1080p от Dimok
Дата кодирования : UTC 2013-01-31 06:10:11
Программа кодирования : mkvmerge v6.0.0 ('Coming Up For Air') built on Jan 20 2013 09:52:00
Библиотека кодирования : libebml v1.3.0 + libmatroska v1.4.0
Attachment : Yes

Видео
Идентификатор : 1
Формат : AVC
Формат/Информация : Advanced Video Codec
Профиль формата : High@L4.1
Параметр CABAC формата : Да
Параметр ReFrames формата : 4 кадра
Идентификатор кодека : V_MPEG4/ISO/AVC
Продолжительность : 1 ч. 21 м.
Битрейт : 7068 Кбит/сек
Ширина : 1920 пикселей
Высота : 1080 пикселей
Соотношение сторон : 16:9
Режим частоты кадров : Постоянный
Частота кадров : 23,976 кадра/сек
Цветовое пространство : YUV
Субдискретизация насыщенности : 4:2:0
Битовая глубина : 8 бит
Тип развёртки : Прогрессивная
Бит/(Пиксели*Кадры) : 0.142
Размер потока : 3,92 Гбайт (90%)
Библиотека кодирования : x264 core 125 r2208 d9d2288
Настройки программы : cabac=1 / ref=4 / deblock=1:0:0 / analyse=0x3:0x133 / me=umh / subme=10 / psy=1 / psy_rd=1.00:0.10 / mixed_ref=1 / me_range=32 / chroma_me=1 / trellis=2 / 8x8dct=1 / cqm=0 / deadzone=21,11 / fast_pskip=0 / chroma_qp_offset=-1 / threads=12 / lookahead_threads=2 / sliced_threads=0 / nr=0 / decimate=1 / interlaced=0 / bluray_compat=0 / constrained_intra=0 / bframes=3 / b_pyramid=2 / b_adapt=2 / b_bias=0 / direct=3 / weightb=1 / open_gop=0 / weightp=2 / keyint=240 / keyint_min=23 / scenecut=40 / intra_refresh=0 / rc_lookahead=68 / rc=2pass / mbtree=1 / bitrate=7068 / ratetol=1.0 / qcomp=0.61 / qpmin=1 / qpmax=69 / qpstep=4 / cplxblur=20.0 / qblur=0.5 / ip_ratio=1.40 / aq=1:1.00
Язык : English
Default : Да
Forced : Нет

Аудио
Идентификатор : 2
Формат : AC-3
Формат/Информация : Audio Coding 3
Расширение режима : CM (complete main)
Параметр Endianness формата : Big
Идентификатор кодека : A_AC3
Продолжительность : 1 ч. 21 м.
Вид битрейта : Постоянный
Битрейт : 640 Кбит/сек
Каналы : 6 каналов
Расположение каналов : Front: L C R, Side: L R, LFE
Частота : 48,0 КГц
Битовая глубина : 16 бит
Метод сжатия : С потерями
Размер потока : 371 Мбайт (8%)
Заголовок : Дубляж
Язык : Russian
Default : Да
Forced : Нет

Меню
00:00:00.000 : :Chapter 1
00:05:20.554 : :Chapter 2
00:10:30.540 : :Chapter 3
00:15:36.351 : :Chapter 4
00:20:40.654 : :Chapter 5
00:25:57.457 : :Chapter 6
00:30:31.521 : :Chapter 7
00:35:50.963 : :Chapter 8
00:40:45.258 : :Chapter 9
00:45:24.658 : :Chapter 10
00:50:05.325 : :Chapter 11
00:55:42.265 : :Chapter 12
01:00:24.312 : :Chapter 13
01:05:12.456 : :Chapter 14
01:10:52.954 : :Chapter 15
01:15:27.522 : :Chapter 16



   Похожие торренты   Торрент   Размер 
В этой теме нет новых непрочитанных сообщений. Ролли и Эльф: Невероятные приключения / Rolly and Elf: Unbelievable adventures (2007) BDRip 1080p от PskovLine

1 | 2

4.37 ГБ

В этой теме нет новых непрочитанных сообщений. Ролли и Эльф: Невероятные приключения (2007) BDRip-AVC | iPad

17 | 2

1.37 ГБ

В этой теме нет новых непрочитанных сообщений. Ролли и Эльф: Невероятные приключения (2007) BDRip-AVC от Leonardo and Scarabey

144 | 13

1.5 ГБ

В этой теме нет новых непрочитанных сообщений. Ролли и Эльф: невероятные приключения (2007) DVD5

2 | 2

2.79 ГБ

В этой теме нет новых непрочитанных сообщений. Ролли и Эльф: невероятные приключения (2007) HDRip | Лицензия

238 | 6

1.38 ГБ

В этой теме нет новых непрочитанных сообщений. Невероятные животные / Unbelievable Beasts (2007) SATRip

0 | 3

691.28 МБ

В этой теме нет новых непрочитанных сообщений. Невероятные приключения Мюнхгаузена / The Surprising Adventures of Munchausen (2012) PC

35 | 4

311.89 МБ




Вы не можете начинать темы
Вы не можете отвечать на сообщения
Вы не можете редактировать свои сообщения
Вы не можете удалять свои сообщения
Вы не можете добавлять вложения

Перейти:  
Для Мосгорсуда, Роскомнадзора и рекламодателей: mosgorsud-torrent[собачка]yandex.ru
 Вход
ppkBB3cker v.2 © 2008-2014 @ PPK
[ Time : 0.045s | 17 Queries | GZIP : Off ]

cron