img image001 image001 image001 image001 image001 image001 image001 image001 image001 image001 image001 image001 image001 image001 image001

Planets Sun Sun Sun
Статистика раздачи
Автор: Снежана | Размер: 1.46 ГБ | Добавлен: 27 июл 2013
Раздают: 88    Качают: 5
Скачать торрент
Скачать торрент
Описание торрента

СообщениеДобавлено: 27 июл 2013 

«Главное новогоднее приключение»

#77
Страна: Россия
Жанр: мультфильм, фэнтези, приключения, семейный
Год выпуска: 2012
Продолжительность: 01:16:00
Оригинальная аудиодорожка: русский
Субтитры: нет

Режиссер: Максим Свешников, Владлен Барбэ

Роли озвучивали: Иван Охлобыстин, Нюша Шурочкина, Анна Ардова, Рамиля Искандер, Дмитрий Нагиев, Лиза Арзамасова, Галина Тюнина, Юрий Стоянов, Людмила Артемьева, Михаил Тихонов...

Описание: В стремлении сотворить Новый мир — холодный и практичный, где четкость линий призвана заменить эмоции, а северный ветер должен остудить людские души, Снежная Королева избавляется от всех представителей творческих профессий. Маленькой и смелой Герде, отправившейся в опасное путешествие, чтобы спасти своего брата Кая, предстоит столкнуться с этим холодным миром Снежной Королевы. Преодолевая все сложности и преграды на пути к своей цели, Герда не только обретает семью, но и веру в себя, находит поддержку новых друзей.





Качество видео: BDRip [Blu-ray 1080p]
Формат видео: AVI

Видео: 720x400 (16:9), XViD 2286 Кбит/сек 24,000 fps / Бит/(Пиксели*Кадры): 0.331
Аудио: Dolby Digital Audio Russian 448 kbps 5.1 / 48 kHz

Раздача от:
Общее
Полное имя : Snezhnaya.Koroleva.2012.O.BDRip.avi
Формат : AVI
Формат/Информация : Audio Video Interleave
Размер файла : 1,46 Гбайт
Продолжительность : 1 ч. 16 м.
Общий поток : 2743 Кбит/сек
Программа кодирования : VirtualDubMod 1.5.10.3 (build 2550/release)
Библиотека кодирования : VirtualDubMod build 2550/release

Видео
Идентификатор : 0
Формат : MPEG-4 Visual
Профиль формата : Advanced Simple@L5
Параметр BVOP формата : 1
Параметр QPel формата : Нет
Параметр GMC формата : Без точки перехода
Параметр матрицы формата : Выборочная
Идентификатор кодека : XVID
Идентификатор кодека/Подсказка : XviD
Продолжительность : 1 ч. 16 м.
Битрейт : 2286 Кбит/сек
Ширина : 720 пикселей
Высота : 400 пикселей
Соотношение сторон : 16:9
Частота кадров : 24,000 кадра/сек
Цветовое пространство : YUV
Субдискретизация насыщенности : 4:2:0
Битовая глубина : 8 бит
Тип развёртки : Прогрессивная
Метод сжатия : С потерями
Бит/(Пиксели*Кадры) : 0.331
Размер потока : 1,21 Гбайт (83%)
Библиотека кодирования : XviD 65

Аудио
Идентификатор : 1
Формат : AC-3
Формат/Информация : Audio Coding 3
Расширение режима : CM (complete main)
Параметр Endianness формата : Big
Идентификатор кодека : 2000
Продолжительность : 1 ч. 16 м.
Вид битрейта : Постоянный
Битрейт : 448 Кбит/сек
Каналы : 6 каналов
Расположение каналов : Front: L C R, Side: L R, LFE
Частота : 48,0 КГц
Битовая глубина : 16 бит
Метод сжатия : С потерями
Размер потока : 244 Мбайт (16%)
Выравнивание : Разделение по промежуткам
Продолжительность промежутка : 42 мс. (1,00 видеокадр)
Время предзагрузки промежутка : 500 мс.



Быстро родятся только кошки, но не рипы :)

http://www.check2pic.ru/compare/25261/ - в двойном разрешении
http://www.check2pic.ru/compare/25264/ - в оригинальном разрешении



   Похожие торренты   Торрент   Размер 
В этой теме нет новых непрочитанных сообщений. Снежная королева (2012) BDRip от Youtracker

39 | 5

744.61 МБ

В этой теме нет новых непрочитанных сообщений. Снежная королева (2012) BDRip-AVC от Youtracker

30 | 3

1.46 ГБ

В этой теме нет новых непрочитанных сообщений. Снежная королева (2012) BDRip 1080p от Youtracker

94 | 13

6.17 ГБ

В этой теме нет новых непрочитанных сообщений. Снежная королева (2012) BDRip 1080p от Youtracker | 3D-Video | Лицензия

29 | 2

6.72 ГБ

В этой теме нет новых непрочитанных сообщений. Снежная королева (2012) Blu-ray 1080p от HDCLUB и Youtracker

12 | 9

17.16 ГБ

В этой теме нет новых непрочитанных сообщений. Снежная королева (2012) DVD9 R5 от Youtracker | 2D+3D | 3D-video

5 | 4

7.29 ГБ

В этой теме нет новых непрочитанных сообщений. Снежная королева (2012) DVD5 от Youtracker 2D | сжатый

3 | 3

3.68 ГБ




Вы не можете начинать темы
Вы не можете отвечать на сообщения
Вы не можете редактировать свои сообщения
Вы не можете удалять свои сообщения
Вы не можете добавлять вложения

Перейти:  
Для Мосгорсуда, Роскомнадзора и рекламодателей: mosgorsud-torrent[собачка]yandex.ru
 Вход
ppkBB3cker v.2 © 2008-2014 @ PPK
[ Time : 0.044s | 16 Queries | GZIP : Off ]

cron