img image001 image001 image001 image001 image001 image001 image001 image001 image001 image001 image001 image001 image001 image001 image001

Planets Sun Sun Sun
Статистика раздачи
Автор: Снежана | Размер: 4.4 ГБ | Добавлен: 28 июл 2013
Раздают: 157    Качают: 15
Скачать торрент
Скачать торрент
Описание торрента

СообщениеДобавлено: 28 июл 2013 

#77

Информация о фильме
Название: Ну, погоди! (Выпуски 1-16)
Год выхода: 1969-1986
Жанр: Мультфильм, комедия, семейный
Режиссер: Вячеслав Котеночкин, Юрий Бутырин, Владимир Тарасов
В ролях: Клара Румянова, Анатолий Папанов, Геннадий Хазанов, Владимир Сошальский, Игорь Христенко.

О фильме:
Веселые приключения неразлучной парочки — хулигана Волка и смышленого Зайца. Любимые с детства сцены погонь, ссор и примирений, шутки и мелодии.



Страна: СССР / Союзмультфильм
Продолжительность: 16 x 8-9 мин
Перевод: Оригинал

Файл
Кодек: H264
Формат: MKV
Качество: BDRip 1080p (источник: Blu-ray Disc)
Видео: Диск 1: 1440x1080, 3696 Kbps, 23,976 fps Диск 2: 1456x1080, 3647 Kbps, 23,976 fps
Звук: 48 kHz, AC3, 6c, 448 kbps
Субтитры: Нет
Переключение выпусков по главам.

Семпл Диск 1
Семпл Диск 2




Общее
Уникальный идентификатор : 193757149547890488421551498460161725103 (0x91C445062A90A4B78BF114CECE9152AF)
Формат : Matroska
Версия формата : Version 4 / Version 2
Размер файла : 2,20 Гбайт
Продолжительность : 1 ч. 15 м.
Общий поток : 4146 Кбит/сек
Название фильма : Ну, погоди! - (1-8)
Дата кодирования : UTC 2013-02-02 09:00:48
Программа кодирования : mkvmerge v6.0.0 ('Coming Up For Air') built on Jan 20 2013 09:52:00
Библиотека кодирования : libebml v1.3.0 + libmatroska v1.4.0

Видео
Идентификатор : 1
Формат : AVC
Формат/Информация : Advanced Video Codec
Профиль формата : High@L4.1
Параметр CABAC формата : Да
Параметр ReFrames формата : 4 кадра
Идентификатор кодека : V_MPEG4/ISO/AVC
Продолжительность : 1 ч. 15 м.
Битрейт : 3696 Кбит/сек
Ширина : 1440 пикселей
Высота : 1080 пикселей
Соотношение сторон : 4:3
Режим частоты кадров : Постоянный
Частота кадров : 23,976 кадра/сек
Цветовое пространство : YUV
Субдискретизация насыщенности : 4:2:0
Битовая глубина : 8 бит
Тип развёртки : Прогрессивная
Бит/(Пиксели*Кадры) : 0.099
Размер потока : 1,92 Гбайт (87%)
Заголовок : Ну, погоди! - (1-8) BDRip от Dimok
Библиотека кодирования : x264 core 125 r2208 d9d2288
Настройки программы : cabac=1 / ref=4 / deblock=1:0:0 / analyse=0x3:0x133 / me=umh / subme=10 / psy=1 / psy_rd=1.00:0.10 / mixed_ref=1 / me_range=32 / chroma_me=1 / trellis=2 / 8x8dct=1 / cqm=0 / deadzone=21,11 / fast_pskip=0 / chroma_qp_offset=-1 / threads=12 / lookahead_threads=2 / sliced_threads=0 / nr=0 / decimate=1 / interlaced=0 / bluray_compat=0 / constrained_intra=0 / bframes=3 / b_pyramid=2 / b_adapt=2 / b_bias=0 / direct=3 / weightb=1 / open_gop=0 / weightp=2 / keyint=240 / keyint_min=23 / scenecut=40 / intra_refresh=0 / rc_lookahead=66 / rc=2pass / mbtree=1 / bitrate=3696 / ratetol=1.0 / qcomp=0.62 / qpmin=1 / qpmax=69 / qpstep=4 / cplxblur=20.0 / qblur=0.5 / ip_ratio=1.40 / aq=1:1.00
Язык : English
Default : Да
Forced : Нет

Аудио
Идентификатор : 2
Формат : AC-3
Формат/Информация : Audio Coding 3
Расширение режима : CM (complete main)
Параметр Endianness формата : Big
Идентификатор кодека : A_AC3
Продолжительность : 1 ч. 15 м.
Вид битрейта : Постоянный
Битрейт : 448 Кбит/сек
Каналы : 6 каналов
Расположение каналов : Front: L C R, Side: L R, LFE
Частота : 48,0 КГц
Битовая глубина : 16 бит
Метод сжатия : С потерями
Размер потока : 243 Мбайт (11%)
Заголовок : Оригинал
Язык : Russian
Default : Да
Forced : Нет

Меню
00:00:00.000 : :Выпуск 01 - В городе и на пляже
00:09:34.111 : :Выпуск 02 - В городском парке
00:19:09.350 : :Выпуск 03 - На дороге
00:28:45.201 : :Выпуск 04 - На стадионе
00:37:50.300 : :Выпуск 05 - В городе
00:47:12.240 : :Выпуск 06 - В деревне
00:56:55.660 : :Выпуск 07 - На корабле
01:06:32.420 : :Выпуск 08 - Новый год

Общее
Уникальный идентификатор : 238773487804577022467216907058913892385 (0xB3A219DBB77CE795A3C9D61FE2025821)
Формат : Matroska
Версия формата : Version 4 / Version 2
Размер файла : 2,20 Гбайт
Продолжительность : 1 ч. 16 м.
Общий поток : 4097 Кбит/сек
Название фильма : Ну, погоди! - (9-16)
Дата кодирования : UTC 2013-02-02 08:16:36
Программа кодирования : mkvmerge v6.0.0 ('Coming Up For Air') built on Jan 20 2013 09:52:00
Библиотека кодирования : libebml v1.3.0 + libmatroska v1.4.0

Видео
Идентификатор : 1
Формат : AVC
Формат/Информация : Advanced Video Codec
Профиль формата : High@L4.1
Параметр CABAC формата : Да
Параметр ReFrames формата : 4 кадра
Идентификатор кодека : V_MPEG4/ISO/AVC
Продолжительность : 1 ч. 16 м.
Битрейт : 3647 Кбит/сек
Ширина : 1456 пикселей
Высота : 1080 пикселей
Соотношение сторон : 4:3
Режим частоты кадров : Постоянный
Частота кадров : 23,976 кадра/сек
Цветовое пространство : YUV
Субдискретизация насыщенности : 4:2:0
Битовая глубина : 8 бит
Тип развёртки : Прогрессивная
Бит/(Пиксели*Кадры) : 0.097
Размер потока : 1,91 Гбайт (87%)
Заголовок : Ну, погоди! - (9-16) BDRip от Dimok
Библиотека кодирования : x264 core 125 r2208 d9d2288
Настройки программы : cabac=1 / ref=4 / deblock=1:0:0 / analyse=0x3:0x133 / me=umh / subme=10 / psy=1 / psy_rd=1.00:0.10 / mixed_ref=1 / me_range=32 / chroma_me=1 / trellis=2 / 8x8dct=1 / cqm=0 / deadzone=21,11 / fast_pskip=0 / chroma_qp_offset=-1 / threads=12 / lookahead_threads=2 / sliced_threads=0 / nr=0 / decimate=1 / interlaced=0 / bluray_compat=0 / constrained_intra=0 / bframes=3 / b_pyramid=2 / b_adapt=2 / b_bias=0 / direct=3 / weightb=1 / open_gop=0 / weightp=2 / keyint=240 / keyint_min=23 / scenecut=40 / intra_refresh=0 / rc_lookahead=66 / rc=2pass / mbtree=1 / bitrate=3647 / ratetol=1.0 / qcomp=0.62 / qpmin=1 / qpmax=69 / qpstep=4 / cplxblur=20.0 / qblur=0.5 / ip_ratio=1.40 / aq=1:1.00
Язык : English
Default : Да
Forced : Нет

Аудио
Идентификатор : 2
Формат : AC-3
Формат/Информация : Audio Coding 3
Расширение режима : CM (complete main)
Параметр Endianness формата : Big
Идентификатор кодека : A_AC3
Продолжительность : 1 ч. 16 м.
Вид битрейта : Постоянный
Битрейт : 448 Кбит/сек
Каналы : 6 каналов
Расположение каналов : Front: L C R, Side: L R, LFE
Частота : 48,0 КГц
Битовая глубина : 16 бит
Метод сжатия : С потерями
Размер потока : 246 Мбайт (11%)
Заголовок : Оригинал
Язык : Russian
Default : Да
Forced : Нет

Меню
00:00:00.000 : :Выпуск 09 - В телестудии
00:09:21.131 : :Выпуск 10 - На стройке
00:18:50.150 : :Выпуск 11 - В цирке
00:28:19.401 : :Выпуск 12 - В музее
00:37:25.215 : :Выпуск 13 - Олимпиада '80
00:46:42.141 : :Выпуск 14 - Дом техников
00:56:44.542 : :Выпуск 15 - Дом культуры
01:06:42.254 : :Выпуск 16 - В сказке



   Похожие торренты   Торрент   Размер 
В этой теме нет новых непрочитанных сообщений. Ну, погоди! (1969-1986) BDRip-AVC | iPad

324 | 5

3.95 ГБ

В этой теме нет новых непрочитанных сообщений. Ну, погоди! [01-16 из 20] (1969-1986) BDRip 720p

102 | 17

7.68 ГБ

В этой теме нет новых непрочитанных сообщений. Ну, погоди! (1969-1986) BDRip 720p

1019 | 90

5.74 ГБ

В этой теме нет новых непрочитанных сообщений. Ну, погоди! (1969-1986) BDRip от HQCLUB

414 | 34

2.72 ГБ

В этой теме нет новых непрочитанных сообщений. Ну, погоди! [01-16 из 16] (1969) BDRip-AVC от R.G. HD-Films | 60 fps

318 | 57

4.96 ГБ

В этой теме нет новых непрочитанных сообщений. Ну, погоди! [01-20] (1969–2006) BDRip, DVDRip от New-Team

911 | 68

3.15 ГБ

В этой теме нет новых непрочитанных сообщений. Ну, погоди! [01-20] (1969–2006) BDRip-AVC, DVDRip-AVC от New-Team

2305 | 315

2.98 ГБ




Вы не можете начинать темы
Вы не можете отвечать на сообщения
Вы не можете редактировать свои сообщения
Вы не можете удалять свои сообщения
Вы не можете добавлять вложения

Перейти:  
Для Мосгорсуда, Роскомнадзора и рекламодателей: mosgorsud-torrent[собачка]yandex.ru
 Вход
ppkBB3cker v.2 © 2008-2014 @ PPK
[ Time : 0.065s | 16 Queries | GZIP : Off ]
CGP output time : 0.093s | 5 Queries | GZIP : Off

Торрент трекер RUTOR.IN, Не можете зайти на rutor.org? Какой новый адрес рутор? Какое зеркало рутор? Не работает rutor.org и зеркала? Тогда наш торрент специально для вас. Rutor.in неофициальное зеркало rutor. В случае если у Вас заблокирован rutor или вдруг Вы не можете на него зайти, то Вы без труда сможете скачать бесплатно и без рекламы последние новинки кино, игр, сериалов и прочего у нас, на Rutor.in. Не нужно использовать прокси, чтобы зайти на рутор, достаточно воспользоваться нашим ресурсом. Все новые фильмы, игры, сериалы, книги и музыка за 2013 и 2014 годы через торрент бесплатно. Скачивайте фильмы в хорошем качестве, игры для пк, xbox, playstation без регистрации. У нас вы найдете новые Зарубежные сериалы и Русские сериалы 2013, 2014, 2015 годов. Оставайтесь с нами, качайте любимые фильмы, игры, сериалы, книги и музыку.