img image001 image001 image001 image001 image001 image001 image001 image001 image001 image001 image001 image001 image001 image001 image001 image001

Planets Sun Sun Sun
Статистика раздачи
Автор: Снежана | Размер: 3.9 ГБ | Добавлен: 27 июл 2013
Раздают: 546    Качают: 35
Скачать торрент
Скачать торрент
Описание торрента

СообщениеДобавлено: 27 июл 2013 

#77


Три богатыря на дальних берегах в 3Д
«Незапланированный отпуск»


#77

Страна: Россия
Студия: Кинокомпания CTB, Анимационная студия Мельница
Жанр: мультфильм, комедия, приключения
Год выпуска: 2012
Продолжительность: 01:11:18

Перевод: Профессиональный (оригинальный) [лицензия]
Оригинальная аудиодорожка: русская
Русские субтитры: нет
Режиссер: Константин Феоктистов
Роли озвучивали: Дмитрий Быковский-Ромашов, Валерий Соловьев, Олег Куликович, Сергей Маковецкий, Дмитрий Высоцкий, Фёдор Бондарчук, Елизавета Боярская, Мария Цветкова-Овсянникова, Елена Шульман, Лия Медведева


На этот раз Алеша Попович, Добрыня Никитич и Илья Муромец, благодаря козням коварной Бабы Яги, оказываются за семью морями на острове, на котором живут туземцы и страшный Гомума. В их отсутствие купец Колыван решают вместе с Бабой-Ягой захватить царство и забрать власть у князя Киевского. На помощь незадачливому правителю приходит конь Юлий, а также жены богатырей и их многочисленные родственники. Словом, богатырей и зрителей ждут приключения на дальних берегах, обыкновенные и невероятные.

Качество: BDRip 1080p
Контейнер: MKV
Формат 3D: Half OverUnder / Вертикальная анаморфная стереопара
Порядок ракурсов: левый ракурс первый
Поддержка автоматического запуска 3D на вашем TV (frame paking): да
Видео кодек: x264
Аудио кодек: AC3
Видео: AVC / High@L4.1 / 2 pass / 23,976 fps / 1920x1080p / 7,2 Mbps / 0.145
Аудио: AC3 / 5.1 ch / 640 kbps / Русский оригинальный BD RUS
Субтитры: нет
Дополнительно: Сохранены оригинальные чаптеры как на Blu-ray
Рип от: Killbrain


Раздача от:








Проверено на оборудовании:
3D медиаплеер: iconBIT XDS73D
3D телевизор: 3D LED-Телевизор 40" Samsung UE40 ES6850M




x264 [info]: frame I:1222 Avg QP:12.70 size:366099
x264 [info]: frame P:28135 Avg QP:15.09 size: 74781
x264 [info]: frame B:73217 Avg QP:17.76 size: 17713

Общее
Уникальный идентификатор : 238437648117582328823664237591067006633 (0xB3616BAEECC50450BDD2DB9C4B7E96A9)
Полное имя : F:Скачка торрентTri.bogatyrya.na.dalnikh.beregakh.3D.2012.BDRip1080p.halfOU(Killbrain).mkv
Формат : Matroska
Версия формата : Version 4 / Version 2
Размер файла : 3,90 Гбайт
Продолжительность : 1 ч. 11 м.
Общий поток : 7838 Кбит/сек
Название фильма : Три богатыря на дальних берегах 3D (2012) by Killbrain
Дата кодирования : UTC 2010-02-22 21:41:31
Программа кодирования : mkvmerge v5.9.0 ('On The Loose') built on Dec 9 2012 15:37:01
Библиотека кодирования : libebml v1.3.0 + libmatroska v1.4.0

Видео
Идентификатор : 1
Формат : AVC
Формат/Информация : Advanced Video Codec
Профиль формата : High@L4.1
Параметр CABAC формата : Да
Параметр ReFrames формата : 4 кадра
Идентификатор кодека : V_MPEG4/ISO/AVC
Продолжительность : 1 ч. 11 м.
Битрейт : 7200 Кбит/сек
Ширина : 1920 пикселей
Высота : 1080 пикселей
Соотношение сторон : 16:9
Режим частоты кадров : Постоянный
Частота кадров : 23,976 кадра/сек
Цветовое пространство : YUV
Субдискретизация насыщенности : 4:2:0
Битовая глубина : 8 бит
Тип развёртки : Прогрессивная
Бит/(Пиксели*Кадры) : 0.145
Размер потока : 3,51 Гбайт (90%)
Заголовок : Три богатыря на дальних берегах 3D (2012)
Библиотека кодирования : x264 core 128 r2216 198a7ea
Настройки программы : cabac=1 / ref=4 / deblock=1:-2:-2 / analyse=0x3:0x113 / me=umh / subme=9 / psy=1 / psy_rd=1.00:0.40 / mixed_ref=1 / me_range=16 / chroma_me=1 / trellis=2 / 8x8dct=1 / cqm=0 / deadzone=21,11 / fast_pskip=1 / chroma_qp_offset=-4 / threads=3 / lookahead_threads=1 / sliced_threads=0 / nr=0 / decimate=0 / interlaced=0 / bluray_compat=0 / constrained_intra=0 / bframes=6 / b_pyramid=2 / b_adapt=2 / b_bias=0 / direct=3 / weightb=1 / open_gop=0 / weightp=2 / keyint=240 / keyint_min=23 / scenecut=40 / intra_refresh=0 / rc_lookahead=60 / rc=2pass / mbtree=0 / bitrate=7200 / ratetol=1.0 / qcomp=0.65 / qpmin=0 / qpmax=69 / qpstep=4 / cplxblur=20.0 / qblur=0.5 / vbv_maxrate=40000 / vbv_bufsize=40000 / nal_hrd=none / frame-packing=4 / ip_ratio=1.40 / pb_ratio=1.30 / aq=1:0.70
Язык : Russian
Default : Да
Forced : Нет

Аудио
Идентификатор : 2
Формат : AC-3
Формат/Информация : Audio Coding 3
Расширение режима : CM (complete main)
Параметр Endianness формата : Big
Идентификатор кодека : A_AC3
Продолжительность : 1 ч. 11 м.
Вид битрейта : Постоянный
Битрейт : 640 Кбит/сек
Каналы : 6 каналов
Расположение каналов : Front: L C R, Side: L R, LFE
Частота : 48,0 КГц
Битовая глубина : 16 бит
Метод сжатия : С потерями
Размер потока : 326 Мбайт (8%)
Заголовок : AC3 / 5.1 ch / 640 kbps / Русский оригинальный BD RUS
Язык : Russian
Default : Да
Forced : Нет

Меню
00:00:00.000 : :Chapter 01
00:05:42.342 : :Chapter 02
00:10:39.180 : :Chapter 03
00:16:36.745 : :Chapter 04
00:24:05.902 : :Chapter 05
00:30:40.046 : :Chapter 06
00:35:16.405 : :Chapter 07
00:42:07.608 : :Chapter 08
00:49:30.801 : :Chapter 09
00:54:39.609 : :Chapter 10
01:00:39.802 : :Chapter 11
01:06:27.358 : :Chapter 12







   Похожие торренты   Торрент   Размер 
В этой теме нет новых непрочитанных сообщений. Три богатыря на дальних берегах (2012) BDRip by Alekxandr48

0 | 101

1.07 ГБ

В этой теме нет новых непрочитанных сообщений. Три богатыря на дальних берегах (2012) DVDRip | Лицензия

9 | 4

702.62 МБ

В этой теме нет новых непрочитанных сообщений. На дальних берегах (1958) DVDRip от New-Team

36 | 3

1.09 ГБ

В этой теме нет новых непрочитанных сообщений. На дальних берегах (1958) DVDRip от New-Team

12 | 0

745.33 МБ

В этой теме нет новых непрочитанных сообщений. На дальних берегах (1958) DVDRip-AVC от New-Team

34 | 3

1.09 ГБ

В этой теме нет новых непрочитанных сообщений. Три богатыря: Ход конем (2014) BDRip 1080p от Ash61 | 3D-Video | halfOU

455 | 32

3.26 ГБ

В этой теме нет новых непрочитанных сообщений. Три богатыря: Ход конем (2014) BDRip 1080p

2706 | 125

2.19 ГБ




Вы не можете начинать темы
Вы не можете отвечать на сообщения
Вы не можете редактировать свои сообщения
Вы не можете удалять свои сообщения
Вы не можете добавлять вложения

Перейти:  
 Вход
ppkBB3cker v.2 © 2008-2014 @ PPK
[ Time : 0.034s | 15 Queries | GZIP : Off ]

cron