img image001 image001 image001 image001 image001 image001 image001 image001 image001 image001 image001 image001 image001 image001 image001

Planets Sun Sun Sun
Статистика раздачи
Автор: Снежана | Размер: 745.04 МБ | Добавлен: 27 июл 2013
Раздают: 4    Качают: 13
Скачать торрент
Скачать торрент
Описание торрента

СообщениеДобавлено: 27 июл 2013 

«Приключения начинаются!»



#77
Год выпуска: 2012
Страна: Китай, Канада
Жанр: мультфильм
Продолжительность: 01:33:37
Перевод: Профессиональный (дублированный)
Оригинальная аудиодорожка: нет
Cубтитры: нет

Режиссер: Том Лу / Thom Lu

Роли озвучивали: Юрий Ловенталь, Кэт Сауси, Мэттью Кинг, Джеймс Си, Энни Мумоло, Тим Карри, Марк Хэмилл, Том Кенни, Кристиан Слэйтер

Описание: В прибрежных водах Нью-Йорка живет Кевин — маленькая летучая рыбка. Каждый день Кевин играет со своими друзьями и мечтает попасть на остров Барбадос, в королевство летучих рыб, но его родители считают эти мечты глупыми.
Однажды, чтобы похвастаться, он отправляется к подводной Скале Славы, достать фамильную реликвию семьи — огромную жемчужину, и попадает в рыболовные сети. Кевин вместе с драгоценностью отправляется в аквариум рыбного ресторанчика, где его ждет страшная судьба — стать изысканным деликатесом. Другие обитатели аквариума верят в то, что исчезающие рыбы становятся людьми, поэтому ждут с нетерпением, когда за ними придут. Для того, чтобы спасти своих новых друзей от смерти и вернуться домой с фамильной жемчужиной, Кевину предстоит показать всю свою храбрость.





Качество видео: DVDRip [DVD9 R5]
Формат видео: AVI

Видео: 720x304 (2.35:1), XViD 975 Кбит/сек 25,000 fps / Бит/(Пиксели*Кадры): 0.178
Аудио: MP3 Audio Russian 128 kbps 2.0 / 48 kHz

Раздача от:
Общее
Полное имя : D:Tracker2012Hrabryi.plavnik.2012Hrabryi.plavnik.2012.D.DVDRip.745MB_[Youtracker]_by_avproh.avi
Формат : AVI
Формат/Информация : Audio Video Interleave
Размер файла : 745 Мбайт
Продолжительность : 1 ч. 33 м.
Общий поток : 1113 Кбит/сек
Программа кодирования : VirtualDubMod 1.5.10.3 (build 2550/release)
Библиотека кодирования : VirtualDubMod build 2550/release

Видео
Идентификатор : 0
Формат : MPEG-4 Visual
Профиль формата : Advanced Simple@L5
Параметр BVOP формата : 1
Параметр QPel формата : Нет
Параметр GMC формата : Без точки перехода
Параметр матрицы формата : Выборочная
Идентификатор кодека : XVID
Идентификатор кодека/Подсказка : XviD
Продолжительность : 1 ч. 33 м.
Битрейт : 975 Кбит/сек
Ширина : 720 пикселей
Высота : 304 пикселя
Соотношение сторон : 2,35:1
Частота кадров : 25,000 кадров/сек
Цветовое пространство : YUV
Субдискретизация насыщенности : 4:2:0
Битовая глубина : 8 бит
Тип развёртки : Прогрессивная
Метод сжатия : С потерями
Бит/(Пиксели*Кадры) : 0.178
Размер потока : 653 Мбайт (88%)
Библиотека кодирования : XviD 65

Аудио
Идентификатор : 1
Формат : MPEG Audio
Версия формата : Version 1
Профиль формата : Layer 3
Режим : Joint stereo
Расширение режима : MS Stereo
Идентификатор кодека : 55
Идентификатор кодека/Подсказка : MP3
Продолжительность : 1 ч. 33 м.
Вид битрейта : Постоянный
Битрейт : 128 Кбит/сек
Каналы : 2 канала
Частота : 48,0 КГц
Метод сжатия : С потерями
Размер потока : 85,7 Мбайт (12%)
Выравнивание : Соединение по промежуткам
Продолжительность промежутка : 40 мс. (1,00 видеокадр)
Время предзагрузки промежутка : 504 мс.





   Похожие торренты   Торрент   Размер 
В этой теме нет новых непрочитанных сообщений. Храбрый плавник / Back to the Sea (2012) DVDRip от Youtracker | D

10 | 3

1.45 ГБ

В этой теме нет новых непрочитанных сообщений. Храбрый плавник / Back to the Sea (2012) DVD9 R5 от Youtracker | D

0 | 1

6.48 ГБ

В этой теме нет новых непрочитанных сообщений. Храбрый плавник / Back to the Sea (2012) BDRip-AVC | iPad

0 | 3

748.41 МБ

В этой теме нет новых непрочитанных сообщений. Храбрый лучник 4 / Храбрый лучник и его помошник / Shen diao xia lu / Brave Archer And His Mate (1982) DVDRip от KinoZalSat

3 | 7

1.37 ГБ

В этой теме нет новых непрочитанных сообщений. Rein[Forced] - X Amount Of Stab Wounds In The Back (2012) FLAC от Youtracker

1 | 2

497 МБ

В этой теме нет новых непрочитанных сообщений. Увлечение Стеллы / How Stella Got Her Groove Back (1998) DVDRip от Youtracker

0 | 1

745.06 МБ

В этой теме нет новых непрочитанных сообщений. Увлечение Стеллы / How Stella Got Her Groove Back (1998) DVDRip-AVC от Youtracker

2 | 2

2.19 ГБ




Вы не можете начинать темы
Вы не можете отвечать на сообщения
Вы не можете редактировать свои сообщения
Вы не можете удалять свои сообщения
Вы не можете добавлять вложения

Перейти:  
Для Мосгорсуда, Роскомнадзора и рекламодателей: mosgorsud-torrent[собачка]yandex.ru
 Вход
ppkBB3cker v.2 © 2008-2014 @ PPK
[ Time : 0.048s | 14 Queries | GZIP : Off ]

Торрент трекер RUTOR.IN, Не можете зайти на rutor.org? Какой новый адрес рутор? Какое зеркало рутор? Не работает rutor.org и зеркала? Тогда наш торрент специально для вас. Rutor.in неофициальное зеркало rutor. В случае если у Вас заблокирован rutor или вдруг Вы не можете на него зайти, то Вы без труда сможете скачать бесплатно и без рекламы последние новинки кино, игр, сериалов и прочего у нас, на Rutor.in. Не нужно использовать прокси, чтобы зайти на рутор, достаточно воспользоваться нашим ресурсом. Все новые фильмы, игры, сериалы, книги и музыка за 2013 и 2014 годы через торрент бесплатно. Скачивайте фильмы в хорошем качестве, игры для пк, xbox, playstation без регистрации. У нас вы найдете новые Зарубежные сериалы и Русские сериалы 2013, 2014, 2015 годов. Оставайтесь с нами, качайте любимые фильмы, игры, сериалы, книги и музыку.