img image001 image001 image001 image001 image001 image001 image001 image001 image001 image001 image001 image001 image001 image001 image001

Planets Sun Sun Sun
Статистика раздачи
Автор: Снежана | Размер: 4.37 ГБ | Добавлен: 27 июл 2013
Раздают: 41    Качают: 6
Скачать торрент
Скачать торрент
Описание торрента

СообщениеДобавлено: 27 июл 2013 

#77

Информация о фильме
Название: Шевели ластами 2
Оригинальное название: Sammy's avonturen 2
Год выхода: 2012
Жанр: мультфильм, приключения, семейный
Режиссер: Винсент Кестелут, Бен Стассен
В ролях: Билли Ангер, Пэт Кэрролл, Карлос МакКаллерс II, Синда Адамс, Дино Андраде, Крис Эндрю Кулла, Изабель Фурман, Уэсли Джонни, Силье Рейномо, Дуглас Райан Рот

О фильме:
Верные друзья навсегда, черепахи Сэмми и Рей, наслаждаются размеренной жизнью вблизи океана, а также присматривают за только что вылупившимися Рикки и Эллой. Внезапно, браконьер хватает больших черепах, они нужны ему для захватывающего морского шоу в Дубае. Центральная фигура шоу, морской конёк Большой Ди, посвящает новичков в свои планы на грандиозный побег.
Но, когда маленькие Рикки и Элла прибывают, чтобы спасти «дедушек», планы черепах и их новых друзей: пучеглазой рыбки Джимбо, осьминога Анабель, омара и большой семьи пингвинов, меняются. После ряда волнующих приключений и побегов, наши герои направляются на юг, чтобы встретиться с Шелли, первой и единственной любовью Сэмми.



Страна: Бельгия
Продолжительность: 01:32:52
Перевод: Дубляж + Оригинал

Файл
Кодек: H264
Качество: BDRip 1080p (источник: Blu-ray Disc)
Видео: 1920x1080, 5651 Kbps, 23,976 fps
Звук: 48 kHz, AC3, 6c, 448 kbps
Звук: 48 kHz, AC3, 6c, 640 kbps
Субтитры: Нет

Семпл



Общее
Уникальный идентификатор : 239799465952203617186876030280239674596 (0xB467B27C8568B120A25306E4DB73F4E4)
Формат : Matroska
Версия формата : Version 4 / Version 2
Размер файла : 4,37 Гбайт
Продолжительность : 1 ч. 32 м.
Общий поток : 6734 Кбит/сек
Дата кодирования : UTC 2013-02-06 06:32:28
Программа кодирования : mkvmerge v6.0.0 ('Coming Up For Air') built on Jan 20 2013 09:52:00
Библиотека кодирования : libebml v1.3.0 + libmatroska v1.4.0

Видео
Идентификатор : 1
Формат : AVC
Формат/Информация : Advanced Video Codec
Профиль формата : High@L4.1
Параметр CABAC формата : Да
Параметр ReFrames формата : 4 кадра
Идентификатор кодека : V_MPEG4/ISO/AVC
Продолжительность : 1 ч. 32 м.
Битрейт : 5651 Кбит/сек
Ширина : 1920 пикселей
Высота : 1080 пикселей
Соотношение сторон : 16:9
Режим частоты кадров : Постоянный
Частота кадров : 23,976 кадра/сек
Цветовое пространство : YUV
Субдискретизация насыщенности : 4:2:0
Битовая глубина : 8 бит
Тип развёртки : Прогрессивная
Бит/(Пиксели*Кадры) : 0.114
Размер потока : 3,57 Гбайт (82%)
Заголовок : Sammy's avonturen 2 (2012) BDRip 1080p от Dimok
Библиотека кодирования : x264 core 125 r2208 d9d2288
Настройки программы : cabac=1 / ref=4 / deblock=1:0:0 / analyse=0x3:0x113 / me=umh / subme=10 / psy=1 / psy_rd=1.00:0.50 / mixed_ref=1 / me_range=32 / chroma_me=1 / trellis=2 / 8x8dct=1 / cqm=0 / deadzone=21,11 / fast_pskip=1 / chroma_qp_offset=-2 / threads=12 / lookahead_threads=2 / sliced_threads=0 / slices=2 / nr=0 / decimate=1 / interlaced=0 / bluray_compat=0 / constrained_intra=0 / bframes=3 / b_pyramid=2 / b_adapt=2 / b_bias=0 / direct=3 / weightb=1 / open_gop=0 / weightp=2 / keyint=240 / keyint_min=23 / scenecut=40 / intra_refresh=0 / rc_lookahead=69 / rc=2pass / mbtree=1 / bitrate=5651 / ratetol=1.0 / qcomp=0.60 / qpmin=1 / qpmax=69 / qpstep=4 / cplxblur=20.0 / qblur=0.5 / ip_ratio=1.40 / aq=2:1.00
Язык : English
Default : Да
Forced : Нет

Аудио #1
Идентификатор : 2
Формат : AC-3
Формат/Информация : Audio Coding 3
Расширение режима : CM (complete main)
Параметр Endianness формата : Big
Идентификатор кодека : A_AC3
Продолжительность : 1 ч. 32 м.
Вид битрейта : Постоянный
Битрейт : 448 Кбит/сек
Каналы : 6 каналов
Расположение каналов : Front: L C R, Side: L R, LFE
Частота : 48,0 КГц
Битовая глубина : 16 бит
Метод сжатия : С потерями
Размер потока : 298 Мбайт (7%)
Заголовок : Дубляж
Язык : Russian
Default : Да
Forced : Нет

Аудио #2
Идентификатор : 3
Формат : AC-3
Формат/Информация : Audio Coding 3
Расширение режима : CM (complete main)
Параметр Endianness формата : Big
Идентификатор кодека : A_AC3
Продолжительность : 1 ч. 32 м.
Вид битрейта : Постоянный
Битрейт : 640 Кбит/сек
Каналы : 6 каналов
Расположение каналов : Front: L C R, Side: L R, LFE
Частота : 48,0 КГц
Битовая глубина : 16 бит
Метод сжатия : С потерями
Размер потока : 425 Мбайт (10%)
Заголовок : ENG
Язык : English
Default : Нет
Forced : Нет

Меню
00:00:00.000 : :Chapter 01
00:12:10.563 : :Chapter 02
00:21:49.516 : :Chapter 03
00:34:53.633 : :Chapter 04
00:45:55.127 : :Chapter 05
00:57:24.107 : :Chapter 06
01:07:52.276 : :Chapter 07
01:20:11.056 : :Chapter 08
x264 [info]: frame I:1266 Avg QP:16.38 size:183758
x264 [info]: frame P:41749 Avg QP:20.11 size: 50819
x264 [info]: frame B:90551 Avg QP:22.95 size: 17400



   Похожие торренты   Торрент   Размер 
В этой теме нет новых непрочитанных сообщений. Шевели ластами 2 / Sammy's avonturen 2 (2012) BDRip 1080p от Youtracker | 3D-Video

39 | 10

8.79 ГБ

В этой теме нет новых непрочитанных сообщений. Шевели ластами! / Sammy's Adventures: The Secret Passage / Sammy's avonturen: De geheime do (2010) BDRip 1080p от Youtracker | 3D-Video

24 | 3

5.68 ГБ

В этой теме нет новых непрочитанных сообщений. Шевели ластами 2 / Sammy's avonturen 2 (2012) BDRip (720p)

18 | 2

4.25 ГБ

В этой теме нет новых непрочитанных сообщений. Шевели ластами! / Sammy's avonturen: De geheime doorgang (2010) BDRip 1080p

16 | 4

3.04 ГБ

В этой теме нет новых непрочитанных сообщений. Шевели ластами 2 / Sammy's avonturen 2 (2012) BDRip от HQCLUB | Лицензия

247 | 10

1.45 ГБ

В этой теме нет новых непрочитанных сообщений. Шевели ластами 2 / Sammy's avonturen 2 (2012) BDRip 720р от SuperMin | D

244 | 14

2.18 ГБ

В этой теме нет новых непрочитанных сообщений. Шевели ластами! / Sammy's avonturen: De geheime doorgang (2010) BDRip-AVC 1080p от FREEISLAND

3 | 4

4.37 ГБ




Вы не можете начинать темы
Вы не можете отвечать на сообщения
Вы не можете редактировать свои сообщения
Вы не можете удалять свои сообщения
Вы не можете добавлять вложения

Перейти:  
Для Мосгорсуда, Роскомнадзора и рекламодателей: mosgorsud-torrent[собачка]yandex.ru
 Вход
ppkBB3cker v.2 © 2008-2014 @ PPK
[ Time : 0.038s | 14 Queries | GZIP : Off ]

Торрент трекер RUTOR.IN, Не можете зайти на rutor.org? Какой новый адрес рутор? Какое зеркало рутор? Не работает rutor.org и зеркала? Тогда наш торрент специально для вас. Rutor.in неофициальное зеркало rutor. В случае если у Вас заблокирован rutor или вдруг Вы не можете на него зайти, то Вы без труда сможете скачать бесплатно и без рекламы последние новинки кино, игр, сериалов и прочего у нас, на Rutor.in. Не нужно использовать прокси, чтобы зайти на рутор, достаточно воспользоваться нашим ресурсом. Все новые фильмы, игры, сериалы, книги и музыка за 2013 и 2014 годы через торрент бесплатно. Скачивайте фильмы в хорошем качестве, игры для пк, xbox, playstation без регистрации. У нас вы найдете новые Зарубежные сериалы и Русские сериалы 2013, 2014, 2015 годов. Оставайтесь с нами, качайте любимые фильмы, игры, сериалы, книги и музыку.